<?xml version="1.0" standalone="no"?>
<!DOCTYPE svg PUBLIC "-//W3C//DTD SVG 1.1//EN" "http://www.w3.org/Graphics/SVG/1.1/DTD/svg11.dtd" >
<svg xmlns="http://www.w3.org/2000/svg" xmlns:xlink="http://www.w3.org/1999/xlink" version="1.1">
<metadata>
Created by FontForge 20190801 at Mon Dec 31 18:51:35 2018
 By Jimmy Wärting
Copyright (c) 2018 ParaType Inc., ParaType Ltd. All rights reserved.
</metadata>
<defs>
<font id="PTRootUI-Bold" horiz-adv-x="590" >
  <font-face 
    font-family="PT Root UI Bold"
    font-weight="700"
    font-stretch="normal"
    units-per-em="1000"
    panose-1="2 11 6 3 2 2 2 2 2 4"
    ascent="772"
    descent="-228"
    x-height="500"
    cap-height="700"
    bbox="-57 -209 985 944"
    underline-thickness="50"
    underline-position="-300"
    unicode-range="U+0020-FB04"
  />
<missing-glyph horiz-adv-x="364" 
d="M33 0v666h265v-666h-265zM66 33h199v600h-199v-600z" />
    <glyph glyph-name=".notdef" horiz-adv-x="364" 
d="M33 0v666h265v-666h-265zM66 33h199v600h-199v-600z" />
    <glyph glyph-name="glyph1" horiz-adv-x="0" 
 />
    <glyph glyph-name="glyph2" horiz-adv-x="333" 
 />
    <glyph glyph-name="space" unicode=" " horiz-adv-x="250" 
 />
    <glyph glyph-name="exclam" unicode="!" horiz-adv-x="300" 
d="M150 -9q-34 0 -57 23.5t-23 56.5t23 56.5t57 23.5t57 -23.5t23 -56.5t-23 -56.5t-57 -23.5zM90 200v500h120v-500h-120z" />
    <glyph glyph-name="quotedbl" unicode="&#x22;" horiz-adv-x="400" 
d="M240 440v260h120v-260h-120zM40 440v260h120v-260h-120z" />
    <glyph glyph-name="numbersign" unicode="#" 
d="M294 0l34 190h-123l-34 -190h-104l34 190h-96l19 100h95l25 140h-94l18 100h94l30 170h104l-30 -170h123l30 170h104l-30 -170h92l-18 -100h-92l-25 -140h90l-17 -100h-91l-34 -190h-104zM248 430l-25 -140h123l25 140h-123z" />
    <glyph glyph-name="dollar" unicode="$" horiz-adv-x="610" 
d="M251 -100v94q-102 11 -153 70t-58 171h128q4 -58 23.5 -89t59.5 -41v211q-35 10 -60 19t-53.5 25.5t-46 36t-29.5 49.5t-12 68q0 77 51.5 128.5t149.5 63.5v94h106v-94q98 -10 147 -65t56 -156h-128q-5 49 -22 75t-53 35v-192q47 -13 78 -25.5t65.5 -35.5t52 -60
t17.5 -87q0 -84 -53.5 -137.5t-159.5 -63.5v-94h-106zM444 197q0 58 -87 89v-182q87 19 87 93zM176 513q0 -53 75 -80v162q-75 -17 -75 -82z" />
    <glyph glyph-name="percent" unicode="%" horiz-adv-x="900" 
d="M195 341q-79 0 -127 46.5t-48 120.5v34q0 74 48 120.5t127 46.5t127 -46.5t48 -120.5v-34q0 -74 -48 -120.5t-127 -46.5zM195 427q33 0 53.5 21.5t20.5 59.5v34q0 38 -20.5 59.5t-53.5 21.5q-34 0 -54.5 -21.5t-20.5 -59.5v-34q0 -38 20.5 -59.5t54.5 -21.5zM705 -9
q-79 0 -127 46.5t-48 120.5v34q0 74 48 120.5t127 46.5t127 -46.5t48 -120.5v-34q0 -74 -48 -120.5t-127 -46.5zM705 77q33 0 53.5 21.5t20.5 59.5v34q0 38 -20.5 59.5t-53.5 21.5q-34 0 -54.5 -21.5t-20.5 -59.5v-34q0 -38 20.5 -59.5t54.5 -21.5zM190 0l410 700h110
l-410 -700h-110z" />
    <glyph glyph-name="ampersand" unicode="&#x26;" horiz-adv-x="640" 
d="M510 0l-54 57q-83 -66 -191 -66q-104 0 -164.5 54.5t-60.5 139.5q0 52 24.5 97.5t90.5 97.5q-49 56 -64.5 90t-15.5 80q0 69 49.5 114t130.5 45q82 0 131 -44.5t49 -114.5q0 -46 -24.5 -88.5t-95.5 -94.5l127 -135q15 47 15 98h118q0 -108 -48 -189l133 -141h-150z
M270 95q60 0 111 43l-155 166q-43 -34 -55.5 -60t-12.5 -59q0 -37 30.5 -63.5t81.5 -26.5zM193 550q0 -28 9.5 -49t41.5 -57q47 35 60 57t13 49q0 24 -16.5 39.5t-45.5 15.5q-28 0 -45 -15.5t-17 -39.5z" />
    <glyph glyph-name="quotesingle" unicode="'" horiz-adv-x="200" 
d="M40 440v260h120v-260h-120z" />
    <glyph glyph-name="parenleft" unicode="(" horiz-adv-x="400" 
d="M70 250q0 78 17.5 153.5t42.5 126.5t50 91.5t42 59.5l18 19h140q-7 -7 -19.5 -20t-44.5 -57.5t-56 -93t-44 -125t-20 -154.5t19 -153.5t46 -126.5t54 -91.5t46 -59.5l19 -19h-146q-7 7 -18 20t-39 57.5t-50 93t-39.5 125t-17.5 154.5z" />
    <glyph glyph-name="parenright" unicode=")" horiz-adv-x="400" 
d="M330 250q0 -78 -17.5 -153.5t-42.5 -126.5t-50 -91.5t-42 -59.5l-18 -19h-140q7 7 19.5 20t44.5 57.5t56 93t44 125t20 154.5t-19 153.5t-46 126.5t-54 91.5t-46 59.5l-19 19h146q7 -7 18 -20t39 -57.5t50 -93t39.5 -125t17.5 -154.5z" />
    <glyph glyph-name="asterisk" unicode="*" horiz-adv-x="390" 
d="M15 499v70h119l-59 104l61 36l59 -105l60 105l60 -36l-60 -104h120v-70h-120l60 -105l-61 -35l-59 103l-59 -103l-61 35l60 105h-120z" />
    <glyph glyph-name="plus" unicode="+" 
d="M65 304v106h172v177h116v-177h172v-106h-172v-177h-116v177h-172z" />
    <glyph glyph-name="comma" unicode="," horiz-adv-x="250" 
d="M25 -150l46 275h124l-83 -275h-87z" />
    <glyph glyph-name="hyphen" unicode="-" horiz-adv-x="400" 
d="M40 207v106h320v-106h-320z" />
    <glyph glyph-name="period" unicode="." horiz-adv-x="250" 
d="M125 -9q-34 0 -57 23.5t-23 56.5t23 56.5t57 23.5t57 -23.5t23 -56.5t-23 -56.5t-57 -23.5z" />
    <glyph glyph-name="slash" unicode="/" horiz-adv-x="450" 
d="M5 -200l320 900h120l-320 -900h-120z" />
    <glyph glyph-name="zero" unicode="0" horiz-adv-x="610" 
d="M305 -9q-250 0 -250 333v52q0 333 250 333t250 -333v-52q0 -333 -250 -333zM305 103q62 0 93 48.5t31 172.5v52q0 123 -31.5 172t-92.5 49q-63 0 -93.5 -48t-30.5 -173v-52q0 -123 31.5 -172t92.5 -49z" />
    <glyph glyph-name="one" unicode="1" horiz-adv-x="350" 
d="M10 483v123l140 94h120v-700h-120v576z" />
    <glyph glyph-name="two" unicode="2" horiz-adv-x="550" 
d="M35 0v106l226 217q68 65 93 101t25 71q0 46 -29.5 74t-79.5 28q-51 0 -80 -29.5t-29 -82.5h-126q0 103 63 163.5t172 60.5t172 -59t63 -155q0 -58 -36.5 -114t-119.5 -132l-157 -143h313v-106h-470z" />
    <glyph glyph-name="three" unicode="3" horiz-adv-x="580" 
d="M285 -9q-118 0 -183 64t-67 180h126q4 -132 124 -132q60 0 92 28t32 77q0 44 -30.5 71.5t-86.5 27.5h-92v106h92q47 0 74.5 25t27.5 65q0 43 -28.5 68.5t-80.5 25.5q-100 0 -109 -112h-126q2 105 64 164.5t171 59.5q113 0 174 -54t61 -144q0 -103 -86 -150
q101 -49 101 -162q0 -95 -64.5 -151.5t-185.5 -56.5z" />
    <glyph glyph-name="four" unicode="4" horiz-adv-x="565" 
d="M15 147v106l292 447h158v-447h80v-106h-80v-147h-120v147h-330zM144 253h201v314z" />
    <glyph glyph-name="five" unicode="5" horiz-adv-x="565" 
d="M55 309l30 391h405v-106h-298l-12 -156q51 39 125 39q103 0 166.5 -66.5t63.5 -176.5q0 -111 -67 -177t-183 -66q-97 0 -165 49.5t-85 137.5h126q31 -75 124 -75q57 0 90.5 34.5t33.5 96.5t-33.5 96.5t-90.5 34.5q-77 0 -114 -56h-116z" />
    <glyph glyph-name="six" unicode="6" horiz-adv-x="595" 
d="M305 -9q-117 0 -183.5 76.5t-66.5 226.5v52q0 185 69.5 274t190.5 89q88 0 143.5 -48t71.5 -126h-123q-28 62 -97 62q-132 0 -139 -188q58 60 144 60q107 0 168.5 -62t61.5 -171v-12q0 -102 -67 -167.5t-173 -65.5zM305 357q-58 0 -91 -32.5t-33 -88.5v-12
q0 -56 33 -88.5t91 -32.5q51 0 82.5 32.5t31.5 88.5v12q0 56 -31.5 88.5t-82.5 32.5z" />
    <glyph glyph-name="seven" unicode="7" horiz-adv-x="480" 
d="M10 594v106h460v-106l-241 -594h-134l244 594h-329z" />
    <glyph glyph-name="eight" unicode="8" 
d="M295 -9q-120 0 -185 56t-65 147q0 113 111 170q-91 53 -91 154q0 83 63 137t167 54q107 0 168.5 -53.5t61.5 -137.5q0 -99 -92 -153q112 -58 112 -171q0 -89 -66 -146t-184 -57zM295 103q57 0 90.5 28t33.5 67q0 49 -35.5 80.5t-88.5 37.5q-55 -6 -89.5 -36t-34.5 -82
q0 -39 34 -67t90 -28zM295 411q104 17 104 102q0 33 -29 58.5t-75 25.5t-75 -25.5t-29 -58.5q0 -84 104 -102z" />
    <glyph glyph-name="nine" unicode="9" horiz-adv-x="595" 
d="M285 -9q-88 0 -143.5 48t-71.5 126h123q28 -62 97 -62q128 0 133 188q-55 -60 -143 -60q-107 0 -168.5 62t-61.5 171v12q0 103 66.5 168t173.5 65q117 0 183.5 -76.5t66.5 -226.5v-52q0 -363 -255 -363zM290 343q58 0 91 32.5t33 88.5v12q0 56 -33 88.5t-91 32.5
q-51 0 -82.5 -32.5t-31.5 -88.5v-12q0 -56 31.5 -88.5t82.5 -32.5z" />
    <glyph glyph-name="colon" unicode=":" horiz-adv-x="250" 
d="M125 349q-34 0 -57 23.5t-23 56.5t23 56.5t57 23.5t57 -23.5t23 -56.5t-23 -56.5t-57 -23.5zM125 -9q-34 0 -57 23.5t-23 56.5t23 56.5t57 23.5t57 -23.5t23 -56.5t-23 -56.5t-57 -23.5z" />
    <glyph glyph-name="semicolon" unicode=";" horiz-adv-x="250" 
d="M17 -150l46 275h124l-83 -275h-87zM125 349q-34 0 -57 23.5t-23 56.5t23 56.5t57 23.5t57 -23.5t23 -56.5t-23 -56.5t-57 -23.5z" />
    <glyph glyph-name="less" unicode="&#x3c;" 
d="M525 514l-336 -152l336 -152v-120l-460 210v120l460 210v-116z" />
    <glyph glyph-name="equal" unicode="=" 
d="M65 417v106h460v-106h-460zM65 197v106h460v-106h-460z" />
    <glyph glyph-name="greater" unicode="&#x3e;" 
d="M65 206l336 152l-336 152v120l460 -210v-120l-460 -210v116z" />
    <glyph glyph-name="question" unicode="?" horiz-adv-x="500" 
d="M185 214q0 57 16.5 97.5t39.5 62t46.5 39.5t40 41.5t16.5 55.5q0 40 -24.5 63.5t-69.5 23.5q-46 0 -73 -26t-31 -71h-126q4 93 65 151t160 58q108 0 166.5 -51.5t58.5 -137.5q0 -48 -17 -83t-41 -56.5t-48.5 -42.5t-41.5 -52t-17 -72h-120zM245 -9q-34 0 -57 23.5
t-23 56.5t23 56.5t57 23.5t57 -23.5t23 -56.5t-23 -56.5t-57 -23.5z" />
    <glyph glyph-name="at" unicode="@" horiz-adv-x="1050" 
d="M525 -209q-192 0 -326 134t-134 325t134 325t326 134q202 0 331 -117.5t129 -286.5q0 -138 -66.5 -213.5t-175.5 -75.5q-115 0 -146 77q-59 -77 -157 -77q-71 0 -114.5 46t-43.5 125q0 17 11 83q17 96 78.5 155t144.5 59q81 0 120 -52l8 43h110l-51 -289q-3 -14 -3 -24
q0 -44 51 -44q52 0 89 49t37 138q0 130 -95.5 216t-254.5 86q-151 0 -252.5 -102t-101.5 -255q0 -152 101.5 -254.5t250.5 -102.5q130 0 230 45v-108q-93 -39 -230 -39zM481 118q46 0 77 30.5t42 81.5q11 55 11 76q0 35 -23 55.5t-63 20.5q-45 0 -76 -30t-41 -82
q-10 -55 -10 -76q0 -34 21 -55t62 -21z" />
    <glyph glyph-name="A" unicode="A" horiz-adv-x="650" 
d="M513 0l-59 177h-265l-58 -177h-126l250 700h140l250 -700h-132zM275 436l-51 -153h195l-50 153l-47 144z" />
    <glyph glyph-name="B" unicode="B" horiz-adv-x="620" 
d="M70 0v700h235q134 0 194.5 -48t60.5 -142q0 -99 -90 -146q110 -45 110 -162q0 -102 -60 -152t-195 -50h-255zM325 311h-135v-209h135q70 0 99.5 25t29.5 80q0 54 -29.5 79t-99.5 25zM305 598h-115v-189h115q69 0 99 23.5t30 71.5q0 47 -30 70.5t-99 23.5z" />
    <glyph glyph-name="C" unicode="C" horiz-adv-x="670" 
d="M350 -9q-140 0 -222.5 88t-82.5 245v52q0 155 83.5 244t221.5 89q117 0 193 -64t92 -160h-132q-16 50 -55 81t-98 31q-82 0 -130.5 -56.5t-48.5 -164.5v-52q0 -106 49 -163.5t130 -57.5q59 0 98.5 35.5t54.5 96.5h132q-15 -109 -91 -176.5t-194 -67.5z" />
    <glyph glyph-name="D" unicode="D" horiz-adv-x="680" 
d="M70 0v700h230q163 0 249 -83.5t86 -238.5v-56q0 -153 -87 -237.5t-248 -84.5h-230zM300 594h-110v-488h110q209 0 209 216v56q0 216 -209 216z" />
    <glyph glyph-name="E" unicode="E" horiz-adv-x="560" 
d="M70 0v700h450v-106h-330v-181h270v-106h-270v-201h330v-106h-450z" />
    <glyph glyph-name="F" unicode="F" horiz-adv-x="540" 
d="M70 0v700h450v-106h-330v-191h270v-106h-270v-297h-120z" />
    <glyph glyph-name="G" unicode="G" horiz-adv-x="680" 
d="M340 260v102h295v-52q0 -156 -75 -237.5t-210 -81.5q-143 0 -224 86.5t-81 245.5v54q0 160 80 246t225 86q116 0 190 -63.5t90 -160.5h-130q-16 51 -53.5 81.5t-96.5 30.5q-179 0 -179 -220v-54q0 -108 48.5 -164t130.5 -56q78 0 119.5 37t50.5 120h-180z" />
    <glyph glyph-name="H" unicode="H" horiz-adv-x="710" 
d="M520 0v307h-330v-307h-120v700h120v-287h330v287h120v-700h-120z" />
    <glyph glyph-name="I" unicode="I" horiz-adv-x="270" 
d="M75 0v700h120v-700h-120z" />
    <glyph glyph-name="J" unicode="J" horiz-adv-x="535" 
d="M240 -9q-105 0 -163.5 63.5t-66.5 180.5h120q7 -132 110 -132q110 0 110 147v450h120v-450q0 -127 -60.5 -193t-169.5 -66z" />
    <glyph glyph-name="K" unicode="K" horiz-adv-x="635" 
d="M470 0l-197 299l-83 -102v-197h-120v700h120v-338l264 338h146l-245 -310l265 -390h-150z" />
    <glyph glyph-name="L" unicode="L" horiz-adv-x="515" 
d="M70 0v700h120v-594h310v-106h-430z" />
    <glyph glyph-name="M" unicode="M" horiz-adv-x="810" 
d="M345 185l-114 275l-41 106v-566h-120v700h180l156 -379l156 379h178v-700h-120v567l-42 -107l-113 -275h-120z" />
    <glyph glyph-name="N" unicode="N" horiz-adv-x="710" 
d="M472 0l-240 460l-42 91v-551h-120v700h168l240 -460l42 -92v552h120v-700h-168z" />
    <glyph glyph-name="O" unicode="O" horiz-adv-x="710" 
d="M355 -9q-142 0 -226 88.5t-84 244.5v52q0 154 85 243.5t225 89.5q142 0 226 -88.5t84 -244.5v-52q0 -155 -85 -244t-225 -89zM355 103q84 0 134 57t50 164v52q0 105 -50.5 163t-133.5 58q-85 0 -134.5 -56.5t-49.5 -164.5v-52q0 -106 50.5 -163.5t133.5 -57.5z" />
    <glyph glyph-name="P" unicode="P" horiz-adv-x="600" 
d="M70 0v700h240q270 0 270 -231q0 -107 -69.5 -169t-200.5 -62h-120v-238h-120zM310 594h-120v-250h120q70 0 107 33.5t37 91.5q0 125 -144 125z" />
    <glyph glyph-name="Q" unicode="Q" horiz-adv-x="710" 
d="M355 -9q-142 0 -226 88.5t-84 244.5v52q0 154 85 243.5t225 89.5q142 0 226 -88.5t84 -244.5v-52q0 -159 -91 -250l91 -124h-128l-49 66q-62 -25 -133 -25zM355 103q33 0 62 9l-82 113h128l37 -51q39 58 39 150v52q0 105 -50.5 163t-133.5 58q-85 0 -134.5 -56.5
t-49.5 -164.5v-52q0 -106 50.5 -163.5t133.5 -57.5z" />
    <glyph glyph-name="R" unicode="R" horiz-adv-x="620" 
d="M464 0l-129 264h-145v-264h-120v700h241q269 0 269 -218q0 -147 -130 -196l150 -286h-136zM311 594h-121v-224h121q72 0 107.5 29.5t35.5 82.5q0 112 -143 112z" />
    <glyph glyph-name="S" unicode="S" horiz-adv-x="610" 
d="M305 -9q-130 0 -193.5 59.5t-71.5 184.5h128q5 -71 36.5 -101t100.5 -30t104 26t35 67q0 28 -17 48t-44.5 31t-63 22t-72.5 19.5t-72.5 24.5t-63 36t-44.5 55t-17 81q0 88 65.5 141.5t189.5 53.5q126 0 186.5 -55t68.5 -169h-128q-5 61 -34 86.5t-94 25.5
q-64 0 -96 -23.5t-32 -60.5q0 -34 29 -56.5t73 -32.5t95 -25.5t95 -35t73 -62.5t29 -106q0 -94 -66.5 -149t-198.5 -55z" />
    <glyph glyph-name="T" unicode="T" horiz-adv-x="580" 
d="M15 594v106h550v-106h-215v-594h-120v594h-215z" />
    <glyph glyph-name="U" unicode="U" horiz-adv-x="690" 
d="M345 -9q-133 0 -206.5 76t-73.5 218v415h120v-415q0 -89 42 -135.5t118 -46.5q77 0 118.5 45.5t41.5 136.5v415h120v-415q0 -140 -74.5 -217t-205.5 -77z" />
    <glyph glyph-name="V" unicode="V" horiz-adv-x="660" 
d="M270 0l-260 700h130l200 -560l184 560h126l-240 -700h-140z" />
    <glyph glyph-name="W" unicode="W" horiz-adv-x="970" 
d="M625 0l-141 556l-129 -556h-150l-185 700h126l136 -554l128 554h150l139 -555l129 555h122l-175 -700h-150z" />
    <glyph glyph-name="X" unicode="X" horiz-adv-x="650" 
d="M489 0l-166 272l-168 -272h-140l232 363l-212 337h144l147 -243l151 243h138l-212 -333l232 -367h-146z" />
    <glyph glyph-name="Y" unicode="Y" horiz-adv-x="650" 
d="M270 0v235l-260 465h136l186 -342l178 342h130l-250 -465v-235h-120z" />
    <glyph glyph-name="Z" unicode="Z" horiz-adv-x="585" 
d="M50 594v106h500v-106l-372 -488h372v-106h-510v106l373 488h-363z" />
    <glyph glyph-name="bracketleft" unicode="[" horiz-adv-x="400" 
d="M100 -200v900h270v-106h-150v-688h150v-106h-270z" />
    <glyph glyph-name="backslash" unicode="\" horiz-adv-x="450" 
d="M319 -200l-314 900h126l314 -900h-126z" />
    <glyph glyph-name="bracketright" unicode="]" horiz-adv-x="400" 
d="M300 700v-900h-270v106h150v688h-150v106h270z" />
    <glyph glyph-name="asciicircum" unicode="^" 
d="M409 400l-119 207l-112 -207h-118l171 300h118l181 -300h-121z" />
    <glyph glyph-name="underscore" unicode="_" 
d="M0 -156v106h590v-106h-590z" />
    <glyph glyph-name="grave" unicode="`" horiz-adv-x="250" 
d="M135 560l-130 150h126l114 -150h-110z" />
    <glyph glyph-name="a" unicode="a" horiz-adv-x="520" 
d="M195 -9q-80 0 -122.5 40t-42.5 111q0 82 54.5 125t175.5 43h84v30q0 73 -84 73q-76 0 -84 -58h-126q4 70 56.5 112t153.5 42q98 0 149 -45.5t51 -123.5v-340h-91l-12 69q-55 -78 -162 -78zM215 87q55 0 92 35t37 83v15h-84q-108 0 -108 -74q0 -27 16.5 -43t46.5 -16z" />
    <glyph glyph-name="b" unicode="b" horiz-adv-x="560" 
d="M327 -9q-108 0 -160 76l-11 -67h-91v700h116v-250q53 59 146 59q89 0 143.5 -63t54.5 -180v-32q0 -116 -55 -179.5t-143 -63.5zM292 99q111 0 111 135v32q0 67 -29.5 101t-81.5 34q-49 0 -79.5 -34t-31.5 -95v-38q0 -64 30.5 -99.5t80.5 -35.5z" />
    <glyph glyph-name="c" unicode="c" horiz-adv-x="505" 
d="M270 -9q-109 0 -172 65t-63 178v32q0 112 64 177.5t171 65.5q91 0 145 -45.5t70 -123.5h-124q-8 28 -33.5 44.5t-62.5 16.5q-48 0 -78 -33.5t-30 -101.5v-32q0 -67 31 -101t77 -34q78 0 96 66h124q-16 -82 -69.5 -128t-145.5 -46z" />
    <glyph glyph-name="d" unicode="d" horiz-adv-x="560" 
d="M233 -9q-90 0 -144 62.5t-54 180.5v32q0 116 55 179.5t143 63.5q93 0 146 -59v250h116v-700h-91l-11 67q-52 -76 -160 -76zM268 99q48 0 78.5 33.5t32.5 94.5v39q0 64 -30.5 99.5t-80.5 35.5q-111 0 -111 -135v-32q0 -67 29.5 -101t81.5 -34z" />
    <glyph glyph-name="e" unicode="e" horiz-adv-x="540" 
d="M270 -9q-108 0 -171.5 65t-63.5 178v32q0 113 63.5 178t171.5 65q110 0 172.5 -68t62.5 -191v-39h-354q9 -118 119 -118q91 0 110 62h120q-16 -75 -73 -119.5t-157 -44.5zM270 407q-103 0 -117 -104h234q-13 104 -117 104z" />
    <glyph glyph-name="f" unicode="f" horiz-adv-x="335" 
d="M10 398v102h90v35q0 79 42.5 122t119.5 43h88v-102h-70q-64 0 -64 -71v-27h114v-102h-114v-398h-116v398h-90z" />
    <glyph glyph-name="g" unicode="g" horiz-adv-x="560" 
d="M233 11q-90 0 -144 59.5t-54 173.5v32q0 109 55 171t143 62q106 0 160 -75l11 66h91v-500q0 -209 -222 -209q-197 0 -213 164h116q8 -37 30 -54t67 -17q54 0 80 28t26 88v70q-54 -59 -146 -59zM268 119q49 0 80 34t31 91v32q0 57 -31 91t-80 34q-111 0 -111 -125v-32
q0 -61 29.5 -93t81.5 -32z" />
    <glyph glyph-name="h" unicode="h" horiz-adv-x="575" 
d="M65 0v700h116v-243q50 52 139 52q93 0 144 -55.5t51 -163.5v-290h-116v290q0 54 -26 82.5t-73 28.5q-54 0 -85.5 -29t-33.5 -77v-295h-116z" />
    <glyph glyph-name="i" unicode="i" horiz-adv-x="256" 
d="M70 0v500h116v-500h-116zM128 560q-32 0 -53.5 22t-21.5 53t21.5 53t53.5 22q31 0 53 -22t22 -53t-22 -53t-53 -22z" />
    <glyph glyph-name="j" unicode="j" horiz-adv-x="256" 
d="M-34 -200v102h34q36 0 53 21.5t17 71.5v505h116v-505q0 -106 -43.5 -150.5t-142.5 -44.5h-34zM128 560q-32 0 -53.5 22t-21.5 53t21.5 53t53.5 22q31 0 53 -22t22 -53t-22 -53t-53 -22z" />
    <glyph glyph-name="k" unicode="k" horiz-adv-x="510" 
d="M365 0l-118 193l-66 -85v-108h-116v700h116v-426l168 226h136l-162 -218l182 -282h-140z" />
    <glyph glyph-name="l" unicode="l" horiz-adv-x="285" 
d="M229 0q-79 0 -121.5 43t-42.5 122v535h116v-523q0 -75 69 -75h25v-102h-46z" />
    <glyph glyph-name="m" unicode="m" horiz-adv-x="875" 
d="M65 0v500h91l9 -55q55 64 146 64q105 0 154 -81q55 81 163 81q87 0 137 -56.5t50 -162.5v-290h-116v290q0 54 -25.5 82.5t-70.5 28.5t-75 -31t-30 -80v-290h-116v290q0 54 -26 82.5t-70 28.5t-74 -29.5t-31 -76.5v-295h-116z" />
    <glyph glyph-name="n" unicode="n" horiz-adv-x="575" 
d="M65 0v500h91l9 -56q56 65 155 65q93 0 144 -55.5t51 -163.5v-290h-116v290q0 54 -26 82.5t-73 28.5q-53 0 -85 -29t-34 -77v-295h-116z" />
    <glyph glyph-name="o" unicode="o" horiz-adv-x="550" 
d="M275 -9q-113 0 -176.5 64t-63.5 179v32q0 113 64.5 178t175.5 65q113 0 176.5 -64t63.5 -179v-32q0 -113 -64.5 -178t-175.5 -65zM275 99q118 0 118 135v32q0 66 -31 100.5t-87 34.5q-118 0 -118 -135v-32q0 -66 31 -100.5t87 -34.5z" />
    <glyph glyph-name="p" unicode="p" horiz-adv-x="560" 
d="M327 -9q-94 0 -146 59v-250h-116v700h91l11 -68q52 77 160 77q89 0 143.5 -63t54.5 -180v-32q0 -116 -55 -179.5t-143 -63.5zM292 99q111 0 111 135v32q0 67 -29.5 101t-81.5 34q-49 0 -79.5 -34t-31.5 -95v-38q0 -64 30.5 -99.5t80.5 -35.5z" />
    <glyph glyph-name="q" unicode="q" horiz-adv-x="560" 
d="M233 -9q-90 0 -144 62.5t-54 180.5v32q0 116 55 179.5t143 63.5q108 0 160 -77l11 68h91v-700h-116v249q-52 -58 -146 -58zM268 99q50 0 80.5 35.5t30.5 99.5v38q-2 61 -32.5 95t-78.5 34q-111 0 -111 -135v-32q0 -67 29.5 -101t81.5 -34z" />
    <glyph glyph-name="r" unicode="r" horiz-adv-x="380" 
d="M65 0v500h91l9 -56q54 65 150 65h50v-108h-50q-67 0 -100.5 -29.5t-33.5 -81.5v-290h-116z" />
    <glyph glyph-name="s" unicode="s" horiz-adv-x="490" 
d="M245 -9q-194 0 -210 174h122q8 -43 27 -60.5t61 -17.5q88 0 88 53q0 30 -29.5 46t-72 24t-85 20.5t-72 45t-29.5 86.5q0 65 51 106t149 41q184 0 200 -169h-122q-8 41 -25 57t-53 16q-78 0 -78 -48q0 -23 21.5 -36.5t53.5 -19t69 -15.5t69 -23.5t53.5 -46.5t21.5 -81
q0 -69 -52.5 -110.5t-157.5 -41.5z" />
    <glyph glyph-name="t" unicode="t" horiz-adv-x="360" 
d="M5 398v102h90v140h116v-140h124v-102h-124v-221q0 -75 70 -75h64v-102h-85q-80 0 -122.5 43t-42.5 122v233h-90z" />
    <glyph glyph-name="u" unicode="u" horiz-adv-x="565" 
d="M250 -9q-90 0 -140 56t-50 163v290h116v-290q0 -54 25.5 -82.5t68.5 -28.5q50 0 81 29t33 77v295h116v-500h-91l-9 55q-56 -64 -150 -64z" />
    <glyph glyph-name="v" unicode="v" horiz-adv-x="510" 
d="M190 0l-185 500h126l130 -374l124 374h120l-175 -500h-140z" />
    <glyph glyph-name="w" unicode="w" horiz-adv-x="770" 
d="M485 0l-102 365l-88 -365h-140l-140 500h120l93 -361l88 361h140l99 -357l86 357h114l-130 -500h-140z" />
    <glyph glyph-name="x" unicode="x" horiz-adv-x="500" 
d="M361 0l-113 168l-113 -168h-130l173 253l-165 247h134l105 -159l107 159h128l-165 -243l173 -257h-134z" />
    <glyph glyph-name="y" unicode="y" horiz-adv-x="520" 
d="M130 -200l76 200l-201 500h126l136 -358l128 358h120l-265 -700h-120z" />
    <glyph glyph-name="z" unicode="z" horiz-adv-x="455" 
d="M40 398v102h390v-102l-271 -296h271v-102h-400v102l271 296h-261z" />
    <glyph glyph-name="braceleft" unicode="{" horiz-adv-x="400" 
d="M380 700v-106h-37q-59 0 -86 -27.5t-27 -88.5v-85q0 -53 -15 -87t-61 -57q46 -22 61 -56t15 -86v-85q0 -61 27 -88.5t86 -27.5h37v-106h-67q-203 0 -203 203v90q0 95 -80 105v104q80 10 80 104v91q0 203 203 203h67z" />
    <glyph glyph-name="bar" unicode="|" horiz-adv-x="300" 
d="M90 -200v900h120v-900h-120z" />
    <glyph glyph-name="braceright" unicode="}" horiz-adv-x="400" 
d="M20 -200v106h37q59 0 86 27.5t27 88.5v85q0 53 15 87t61 57q-46 22 -61 56t-15 86v85q0 61 -27 88.5t-86 27.5h-37v106h67q203 0 203 -203v-90q0 -95 80 -105v-104q-80 -10 -80 -104v-91q0 -203 -203 -203h-67z" />
    <glyph glyph-name="asciitilde" unicode="~" 
d="M398 260q-46 0 -85.5 22t-69.5 44t-52 22q-23 0 -37 -13.5t-14 -34.5h-100q0 69 44 114.5t108 45.5q36 0 69.5 -14t54 -30t43.5 -30t40 -14q23 0 37 13.5t14 34.5h100q0 -69 -44 -114.5t-108 -45.5z" />
    <glyph glyph-name="uni00A0" unicode="&#xa0;" horiz-adv-x="250" 
 />
    <glyph glyph-name="exclamdown" unicode="&#xa1;" horiz-adv-x="300" 
d="M150 509q34 0 57 -23.5t23 -56.5t-23 -56.5t-57 -23.5t-57 23.5t-23 56.5t23 56.5t57 23.5zM210 300v-500h-120v500h120z" />
    <glyph glyph-name="cent" unicode="&#xa2;" horiz-adv-x="505" 
d="M216 -100v96q-85 15 -133 77.5t-48 160.5v32q0 97 48.5 159.5t132.5 78.5v96h108v-96q133 -25 161 -164h-124q-8 28 -33.5 44.5t-62.5 16.5q-48 0 -78 -33.5t-30 -101.5v-32q0 -67 31 -101t77 -34q78 0 96 66h124q-28 -146 -161 -169v-96h-108z" />
    <glyph glyph-name="sterling" unicode="&#xa3;" horiz-adv-x="580" 
d="M35 286v88h90v126q0 92 59.5 150.5t155.5 58.5q99 0 155.5 -59t59.5 -165h-126q-6 112 -89 112q-43 0 -69 -26t-26 -71v-126h175v-88h-175v-18q0 -62 -12 -99t-41 -63h363v-106h-520v106q48 27 69 60.5t21 101.5v18h-90z" />
    <glyph glyph-name="currency" unicode="&#xa4;" 
d="M481 100l-72 72q-54 -32 -114 -32q-62 0 -116 32l-72 -72l-72 72l72 72q-32 54 -32 116t31 113l-71 72l75 75l71 -72q53 32 114 32q62 0 114 -33l74 74l72 -72l-73 -73q33 -53 33 -116q0 -61 -32 -114l72 -72zM295 251q42 0 73 32t31 77t-31 77t-73 32q-43 0 -73.5 -32
t-30.5 -77t30.5 -77t73.5 -32z" />
    <glyph glyph-name="yen" unicode="&#xa5;" horiz-adv-x="650" 
d="M75 256v88h130l-195 356h136l186 -347l178 347h130l-188 -356h133v-88h-195v-62h195v-88h-195v-106h-120v106h-195v88h195v62h-195z" />
    <glyph glyph-name="brokenbar" unicode="&#xa6;" horiz-adv-x="300" 
d="M90 -200v370h120v-370h-120zM90 330v370h120v-370h-120z" />
    <glyph glyph-name="section" unicode="&#xa7;" horiz-adv-x="480" 
d="M239 709q86 0 137 -45.5t59 -115.5h-125q-6 60 -71 60q-72 0 -72 -59q0 -30 29.5 -53.5t72 -43t85 -43t72 -66t29.5 -100.5q0 -88 -90 -151q79 -54 79 -138q0 -72 -53.5 -117.5t-151.5 -45.5q-90 0 -143 47t-61 122h126q2 -32 22.5 -50t55.5 -18q39 0 59.5 17t20.5 45
q0 29 -30.5 52t-73.5 42t-86 42.5t-73.5 66t-30.5 100.5q0 90 93 153q-76 57 -76 139q0 71 51.5 115.5t145.5 44.5zM147 260q0 -38 29 -62t89 -52q35 21 51.5 42t16.5 52q0 38 -29 62.5t-87 52.5q-36 -21 -53 -43t-17 -52z" />
    <glyph glyph-name="dieresis" unicode="&#xa8;" horiz-adv-x="340" 
d="M75 565q-29 0 -49.5 20.5t-20.5 49.5t20.5 49.5t49.5 20.5t49.5 -20.5t20.5 -49.5t-20.5 -49.5t-49.5 -20.5zM265 565q-29 0 -49.5 20.5t-20.5 49.5t20.5 49.5t49.5 20.5t49.5 -20.5t20.5 -49.5t-20.5 -49.5t-49.5 -20.5z" />
    <glyph glyph-name="copyright" unicode="&#xa9;" horiz-adv-x="850" 
d="M425 -9q-151 0 -256 104.5t-105 254.5q0 149 105 254t256 105t256 -104.5t105 -254.5q0 -149 -105.5 -254t-255.5 -105zM425 75q114 0 193 79t79 196q0 116 -79 195.5t-193 79.5t-193.5 -79.5t-79.5 -195.5t79.5 -195.5t193.5 -79.5zM425 144q-85 0 -134 50.5t-49 140.5
v30q0 89 50 140t133 51q74 0 121 -37.5t55 -91.5h-97q-19 45 -79 45q-90 0 -90 -107v-30q0 -53 24 -80t66 -27q67 0 82 54h94q-8 -59 -55 -98.5t-121 -39.5z" />
    <glyph glyph-name="ordfeminine" unicode="&#xaa;" horiz-adv-x="350" 
d="M134 371q-53 0 -83.5 26.5t-30.5 71.5q0 54 37.5 82t124.5 28h48v11q0 26 -11.5 37.5t-39.5 11.5q-45 0 -52 -32h-90q6 47 41 74.5t101 27.5q70 0 105.5 -31t35.5 -88v-210h-71l-9 43q-32 -52 -106 -52zM155 441q32 0 52.5 18t22.5 48v14h-50q-66 0 -66 -42q0 -38 41 -38
z" />
    <glyph glyph-name="guillemotleft" unicode="&#xab;" horiz-adv-x="505" 
d="M230 259l121 201h124l-119 -199l119 -201h-127zM25 259l121 201h124l-119 -199l119 -201h-127z" />
    <glyph glyph-name="logicalnot" unicode="&#xac;" 
d="M65 304v106h460v-290h-116v184h-344z" />
    <glyph glyph-name="uni00AD" unicode="&#xad;" horiz-adv-x="400" 
d="M40 207v106h320v-106h-320z" />
    <glyph glyph-name="registered" unicode="&#xae;" horiz-adv-x="650" 
d="M325 141q-119 0 -202.5 83t-83.5 201t83.5 201t202.5 83t202.5 -83t83.5 -201t-83.5 -201t-202.5 -83zM325 209q89 0 151 62.5t62 153.5t-62 153.5t-151 62.5t-151 -62.5t-62 -153.5t62 -153.5t151 -62.5zM371 275l-42 96h-41v-96h-71v300h113q123 0 123 -103
q0 -69 -58 -91l51 -106h-75zM330 511h-42v-77h42q48 0 48 38q0 39 -48 39z" />
    <glyph glyph-name="macron" unicode="&#xaf;" horiz-adv-x="300" 
d="M5 590v90h290v-90h-290z" />
    <glyph glyph-name="degree" unicode="&#xb0;" horiz-adv-x="360" 
d="M180 369q-73 0 -124 49.5t-51 120.5t51 120.5t124 49.5q74 0 124.5 -49.5t50.5 -120.5t-50.5 -120.5t-124.5 -49.5zM180 460q35 0 58.5 23t23.5 56t-24 56t-58 23t-57.5 -23t-23.5 -56t23.5 -56t57.5 -23z" />
    <glyph glyph-name="plusminus" unicode="&#xb1;" 
d="M65 367v106h172v183h116v-183h172v-106h-172v-129h-116v129h-172zM65 59v106h460v-106h-460z" />
    <glyph glyph-name="uni00B2" unicode="&#xb2;" horiz-adv-x="355" 
d="M16 380v82l140 128q48 43 62.5 65.5t14.5 46.5q0 53 -60 53t-60 -54h-97q0 61 42 99.5t115 38.5q72 0 114.5 -38.5t42.5 -98.5q0 -43 -26.5 -81.5t-89.5 -93.5l-74 -65h190v-82h-314z" />
    <glyph glyph-name="uni00B3" unicode="&#xb3;" horiz-adv-x="370" 
d="M180 371q-78 0 -120.5 39.5t-44.5 110.5h96q6 -66 69 -66q33 0 50.5 15.5t17.5 43.5q0 27 -18 43t-50 16h-57v74h57q28 0 43 14.5t15 39.5q0 54 -58 54q-53 0 -59 -54h-96q2 62 43 100t112 38q72 0 113.5 -36t41.5 -91q0 -68 -55 -99q65 -35 65 -106q0 -62 -43 -99
t-122 -37z" />
    <glyph glyph-name="acute" unicode="&#xb4;" horiz-adv-x="250" 
d="M5 560l114 150h126l-130 -150h-110z" />
    <glyph glyph-name="mu" unicode="&#xb5;" horiz-adv-x="570" 
d="M255 -9q-41 0 -74 15v-206h-116v700h116v-290q0 -54 25.5 -82.5t68.5 -28.5q50 0 81 29t33 77v295h116v-500h-91l-9 55q-56 -64 -150 -64z" />
    <glyph glyph-name="paragraph" unicode="&#xb6;" horiz-adv-x="660" 
d="M442 -200v794h-127v-794h-119v464q-76 16 -126 76.5t-50 139.5q0 91 64.5 155.5t155.5 64.5h410v-106h-89v-794h-119z" />
    <glyph glyph-name="periodcentered" unicode="&#xb7;" horiz-adv-x="250" 
d="M125 180q-34 0 -57 23.5t-23 56.5t23 56.5t57 23.5t57 -23.5t23 -56.5t-23 -56.5t-57 -23.5z" />
    <glyph glyph-name="cedilla" unicode="&#xb8;" horiz-adv-x="190" 
d="M39 -88l25 101h68l-11 -43q64 -15 64 -76q0 -45 -26 -69.5t-75 -24.5h-79v76h65q19 0 19 18t-19 18h-31z" />
    <glyph glyph-name="uni00B9" unicode="&#xb9;" horiz-adv-x="260" 
d="M10 661v96l118 73h92v-450h-92v354z" />
    <glyph glyph-name="ordmasculine" unicode="&#xba;" horiz-adv-x="360" 
d="M180 371q-73 0 -116.5 42t-43.5 113v28q0 71 43.5 113t116.5 42q74 0 117 -42t43 -113v-28q0 -71 -43 -113t-117 -42zM180 453q31 0 48.5 18.5t17.5 54.5v28q0 36 -17.5 54.5t-48.5 18.5t-48.5 -18.5t-17.5 -54.5v-28q0 -36 17.5 -54.5t48.5 -18.5z" />
    <glyph glyph-name="guillemotright" unicode="&#xbb;" horiz-adv-x="505" 
d="M480 261l-121 -201h-124l119 199l-119 201h127zM275 261l-121 -201h-124l119 199l-119 201h127z" />
    <glyph glyph-name="onequarter" unicode="&#xbc;" horiz-adv-x="850" 
d="M165 0l410 700h110l-410 -700h-110zM30 538v96l111 66h89v-400h-89v306zM490 75v77l160 248h125v-248h45v-77h-45v-75h-87v75h-198zM583 152h105v166z" />
    <glyph glyph-name="onehalf" unicode="&#xbd;" horiz-adv-x="880" 
d="M165 0l410 700h110l-410 -700h-110zM30 538v96l111 66h89v-400h-89v306zM550 0v80l124 100q51 41 66.5 61.5t15.5 42.5q0 44 -57 44q-55 0 -55 -46h-94q0 127 149 127q151 0 151 -125q0 -40 -23.5 -74.5t-80.5 -78.5l-66 -51h170v-80h-300z" />
    <glyph glyph-name="threequarters" unicode="&#xbe;" horiz-adv-x="900" 
d="M215 0l410 700h110l-410 -700h-110zM540 75v77l160 248h125v-248h45v-77h-45v-75h-87v75h-198zM633 152h105v166zM190 291q-76 0 -117 36t-43 99h94q5 -54 66 -54q66 0 66 49q0 21 -16.5 34.5t-49.5 13.5h-52v71h52q56 0 56 44t-56 44q-51 0 -56 -46h-94q2 59 40.5 93
t109.5 34q72 0 111 -32t39 -84q0 -55 -50 -84q60 -31 60 -97q0 -56 -40 -88.5t-120 -32.5z" />
    <glyph glyph-name="questiondown" unicode="&#xbf;" horiz-adv-x="500" 
d="M315 286q0 -57 -16.5 -97.5t-39.5 -62t-46.5 -39.5t-40 -41.5t-16.5 -55.5q0 -40 24.5 -63.5t69.5 -23.5q46 0 73 26t31 71h126q-4 -93 -65 -151t-160 -58q-108 0 -166.5 51.5t-58.5 137.5q0 48 17 83t41 56.5t48.5 42.5t41.5 52t17 72h120zM255 509q34 0 57 -23.5
t23 -56.5t-23 -56.5t-57 -23.5t-57 23.5t-23 56.5t23 56.5t57 23.5z" />
    <glyph glyph-name="Agrave" unicode="&#xc0;" horiz-adv-x="650" 
d="M513 0l-59 177h-265l-58 -177h-126l250 700h140l250 -700h-132zM275 436l-51 -153h195l-50 153l-47 144zM269 760l-128 150h130l110 -150h-112z" />
    <glyph glyph-name="Aacute" unicode="&#xc1;" horiz-adv-x="650" 
d="M513 0l-59 177h-265l-58 -177h-126l250 700h140l250 -700h-132zM275 436l-51 -153h195l-50 153l-47 144zM269 760l110 150h130l-128 -150h-112z" />
    <glyph glyph-name="Acircumflex" unicode="&#xc2;" horiz-adv-x="650" 
d="M513 0l-59 177h-265l-58 -177h-126l250 700h140l250 -700h-132zM275 436l-51 -153h195l-50 153l-47 144zM388 760l-63 75l-63 -75h-112l110 150h130l110 -150h-112z" />
    <glyph glyph-name="Atilde" unicode="&#xc3;" horiz-adv-x="650" 
d="M513 0l-59 177h-265l-58 -177h-126l250 700h140l250 -700h-132zM275 436l-51 -153h195l-50 153l-47 144zM395 761q-32 0 -58 16t-46 32t-36 16q-35 0 -35 -49h-70q0 135 105 135q31 0 57 -16t46 -32t37 -16q35 0 35 48h70q0 -134 -105 -134z" />
    <glyph glyph-name="Adieresis" unicode="&#xc4;" horiz-adv-x="650" 
d="M513 0l-59 177h-265l-58 -177h-126l250 700h140l250 -700h-132zM275 436l-51 -153h195l-50 153l-47 144zM220 765q-29 0 -49.5 20.5t-20.5 49.5t20.5 49.5t49.5 20.5t49.5 -20.5t20.5 -49.5t-20.5 -49.5t-49.5 -20.5zM430 765q-29 0 -49.5 20.5t-20.5 49.5t20.5 49.5
t49.5 20.5t49.5 -20.5t20.5 -49.5t-20.5 -49.5t-49.5 -20.5z" />
    <glyph glyph-name="Aring" unicode="&#xc5;" horiz-adv-x="650" 
d="M513 0l-59 177h-265l-58 -177h-126l250 700h140l250 -700h-132zM275 436l-51 -153h195l-50 153l-47 144zM325 726q-51 0 -83 30.5t-32 78.5t32 78.5t83 30.5t83 -30.5t32 -78.5t-32 -78.5t-83 -30.5zM325 794q17 0 28 11t11 30t-11 30t-28 11t-28 -11t-11 -30t11 -30
t28 -11z" />
    <glyph glyph-name="AE" unicode="&#xc6;" horiz-adv-x="930" 
d="M0 0l370 700h520v-106h-330v-181h270v-106h-270v-201h330v-106h-450v182h-212l-94 -182h-134zM283 288h157v303z" />
    <glyph glyph-name="Ccedilla" unicode="&#xc7;" horiz-adv-x="670" 
d="M294 -88l20 81q-125 11 -197 97.5t-72 233.5v52q0 155 83.5 244t221.5 89q117 0 193 -64t92 -160h-132q-16 50 -55 81t-98 31q-82 0 -130.5 -56.5t-48.5 -164.5v-52q0 -106 49 -163.5t130 -57.5q59 0 98.5 35.5t54.5 96.5h132q-15 -101 -81.5 -167t-171.5 -75l-6 -23
q64 -15 64 -76q0 -45 -26 -69.5t-75 -24.5h-79v76h65q19 0 19 18q0 16 -16 18h-34z" />
    <glyph glyph-name="Egrave" unicode="&#xc8;" horiz-adv-x="560" 
d="M70 0v700h450v-106h-330v-181h270v-106h-270v-201h330v-106h-450zM239 760l-128 150h130l110 -150h-112z" />
    <glyph glyph-name="Eacute" unicode="&#xc9;" horiz-adv-x="560" 
d="M70 0v700h450v-106h-330v-181h270v-106h-270v-201h330v-106h-450zM239 760l110 150h130l-128 -150h-112z" />
    <glyph glyph-name="Ecircumflex" unicode="&#xca;" horiz-adv-x="560" 
d="M70 0v700h450v-106h-330v-181h270v-106h-270v-201h330v-106h-450zM358 760l-63 75l-63 -75h-112l110 150h130l110 -150h-112z" />
    <glyph glyph-name="Edieresis" unicode="&#xcb;" horiz-adv-x="560" 
d="M70 0v700h450v-106h-330v-181h270v-106h-270v-201h330v-106h-450zM190 765q-29 0 -49.5 20.5t-20.5 49.5t20.5 49.5t49.5 20.5t49.5 -20.5t20.5 -49.5t-20.5 -49.5t-49.5 -20.5zM400 765q-29 0 -49.5 20.5t-20.5 49.5t20.5 49.5t49.5 20.5t49.5 -20.5t20.5 -49.5
t-20.5 -49.5t-49.5 -20.5z" />
    <glyph glyph-name="Igrave" unicode="&#xcc;" horiz-adv-x="270" 
d="M75 0v700h120v-700h-120zM79 760l-128 150h130l110 -150h-112z" />
    <glyph glyph-name="Iacute" unicode="&#xcd;" horiz-adv-x="270" 
d="M75 0v700h120v-700h-120zM79 760l110 150h130l-128 -150h-112z" />
    <glyph glyph-name="Icircumflex" unicode="&#xce;" horiz-adv-x="270" 
d="M75 0v700h120v-700h-120zM198 760l-63 75l-63 -75h-112l110 150h130l110 -150h-112z" />
    <glyph glyph-name="Idieresis" unicode="&#xcf;" horiz-adv-x="270" 
d="M75 0v700h120v-700h-120zM30 765q-29 0 -49.5 20.5t-20.5 49.5t20.5 49.5t49.5 20.5t49.5 -20.5t20.5 -49.5t-20.5 -49.5t-49.5 -20.5zM240 765q-29 0 -49.5 20.5t-20.5 49.5t20.5 49.5t49.5 20.5t49.5 -20.5t20.5 -49.5t-20.5 -49.5t-49.5 -20.5z" />
    <glyph glyph-name="Eth" unicode="&#xd0;" horiz-adv-x="705" 
d="M5 307v86h90v307h230q162 0 248.5 -84t86.5 -238v-56q0 -153 -87 -237.5t-248 -84.5h-230v307h-90zM325 594h-110v-201h160v-86h-160v-201h110q209 0 209 216v56q0 216 -209 216z" />
    <glyph glyph-name="Ntilde" unicode="&#xd1;" horiz-adv-x="710" 
d="M472 0l-240 460l-42 91v-551h-120v700h168l240 -460l42 -92v552h120v-700h-168zM425 761q-32 0 -58 16t-46 32t-36 16q-35 0 -35 -49h-70q0 135 105 135q31 0 57 -16t46 -32t37 -16q35 0 35 48h70q0 -134 -105 -134z" />
    <glyph glyph-name="Ograve" unicode="&#xd2;" horiz-adv-x="710" 
d="M355 -9q-142 0 -226 88.5t-84 244.5v52q0 154 85 243.5t225 89.5q142 0 226 -88.5t84 -244.5v-52q0 -155 -85 -244t-225 -89zM355 103q84 0 134 57t50 164v52q0 105 -50.5 163t-133.5 58q-85 0 -134.5 -56.5t-49.5 -164.5v-52q0 -106 50.5 -163.5t133.5 -57.5zM299 760
l-128 150h130l110 -150h-112z" />
    <glyph glyph-name="Oacute" unicode="&#xd3;" horiz-adv-x="710" 
d="M355 -9q-142 0 -226 88.5t-84 244.5v52q0 154 85 243.5t225 89.5q142 0 226 -88.5t84 -244.5v-52q0 -155 -85 -244t-225 -89zM355 103q84 0 134 57t50 164v52q0 105 -50.5 163t-133.5 58q-85 0 -134.5 -56.5t-49.5 -164.5v-52q0 -106 50.5 -163.5t133.5 -57.5zM299 760
l110 150h130l-128 -150h-112z" />
    <glyph glyph-name="Ocircumflex" unicode="&#xd4;" horiz-adv-x="710" 
d="M355 -9q-142 0 -226 88.5t-84 244.5v52q0 154 85 243.5t225 89.5q142 0 226 -88.5t84 -244.5v-52q0 -155 -85 -244t-225 -89zM355 103q84 0 134 57t50 164v52q0 105 -50.5 163t-133.5 58q-85 0 -134.5 -56.5t-49.5 -164.5v-52q0 -106 50.5 -163.5t133.5 -57.5zM418 760
l-63 75l-63 -75h-112l110 150h130l110 -150h-112z" />
    <glyph glyph-name="Otilde" unicode="&#xd5;" horiz-adv-x="710" 
d="M355 -9q-142 0 -226 88.5t-84 244.5v52q0 154 85 243.5t225 89.5q142 0 226 -88.5t84 -244.5v-52q0 -155 -85 -244t-225 -89zM355 103q84 0 134 57t50 164v52q0 105 -50.5 163t-133.5 58q-85 0 -134.5 -56.5t-49.5 -164.5v-52q0 -106 50.5 -163.5t133.5 -57.5zM425 761
q-32 0 -58 16t-46 32t-36 16q-35 0 -35 -49h-70q0 135 105 135q31 0 57 -16t46 -32t37 -16q35 0 35 48h70q0 -134 -105 -134z" />
    <glyph glyph-name="Odieresis" unicode="&#xd6;" horiz-adv-x="710" 
d="M355 -9q-142 0 -226 88.5t-84 244.5v52q0 154 85 243.5t225 89.5q142 0 226 -88.5t84 -244.5v-52q0 -155 -85 -244t-225 -89zM355 103q84 0 134 57t50 164v52q0 105 -50.5 163t-133.5 58q-85 0 -134.5 -56.5t-49.5 -164.5v-52q0 -106 50.5 -163.5t133.5 -57.5zM250 765
q-29 0 -49.5 20.5t-20.5 49.5t20.5 49.5t49.5 20.5t49.5 -20.5t20.5 -49.5t-20.5 -49.5t-49.5 -20.5zM460 765q-29 0 -49.5 20.5t-20.5 49.5t20.5 49.5t49.5 20.5t49.5 -20.5t20.5 -49.5t-20.5 -49.5t-49.5 -20.5z" />
    <glyph glyph-name="multiply" unicode="&#xd7;" 
d="M159 147l-74 74l136 136l-136 136l74 74l136 -136l136 136l74 -74l-136 -136l136 -136l-74 -74l-136 136z" />
    <glyph glyph-name="Oslash" unicode="&#xd8;" horiz-adv-x="710" 
d="M107 -9l-62 52l58 69q-58 82 -58 212v52q0 155 84.5 244t225.5 89q119 0 196 -62l52 62l62 -52l-58 -69q58 -86 58 -212v-52q0 -155 -85 -244t-225 -89q-118 0 -197 61zM171 324q0 -64 18 -109l285 340q-46 42 -119 42q-85 0 -134.5 -56.5t-49.5 -164.5v-52zM355 103
q84 0 134 57t50 164v52q0 61 -19 108l-284 -339q46 -42 119 -42z" />
    <glyph glyph-name="Ugrave" unicode="&#xd9;" horiz-adv-x="690" 
d="M345 -9q-133 0 -206.5 76t-73.5 218v415h120v-415q0 -89 42 -135.5t118 -46.5q77 0 118.5 45.5t41.5 136.5v415h120v-415q0 -140 -74.5 -217t-205.5 -77zM289 760l-128 150h130l110 -150h-112z" />
    <glyph glyph-name="Uacute" unicode="&#xda;" horiz-adv-x="690" 
d="M345 -9q-133 0 -206.5 76t-73.5 218v415h120v-415q0 -89 42 -135.5t118 -46.5q77 0 118.5 45.5t41.5 136.5v415h120v-415q0 -140 -74.5 -217t-205.5 -77zM289 760l110 150h130l-128 -150h-112z" />
    <glyph glyph-name="Ucircumflex" unicode="&#xdb;" horiz-adv-x="690" 
d="M345 -9q-133 0 -206.5 76t-73.5 218v415h120v-415q0 -89 42 -135.5t118 -46.5q77 0 118.5 45.5t41.5 136.5v415h120v-415q0 -140 -74.5 -217t-205.5 -77zM408 760l-63 75l-63 -75h-112l110 150h130l110 -150h-112z" />
    <glyph glyph-name="Udieresis" unicode="&#xdc;" horiz-adv-x="690" 
d="M345 -9q-133 0 -206.5 76t-73.5 218v415h120v-415q0 -89 42 -135.5t118 -46.5q77 0 118.5 45.5t41.5 136.5v415h120v-415q0 -140 -74.5 -217t-205.5 -77zM240 765q-29 0 -49.5 20.5t-20.5 49.5t20.5 49.5t49.5 20.5t49.5 -20.5t20.5 -49.5t-20.5 -49.5t-49.5 -20.5z
M450 765q-29 0 -49.5 20.5t-20.5 49.5t20.5 49.5t49.5 20.5t49.5 -20.5t20.5 -49.5t-20.5 -49.5t-49.5 -20.5z" />
    <glyph glyph-name="Yacute" unicode="&#xdd;" horiz-adv-x="650" 
d="M270 0v235l-260 465h136l186 -342l178 342h130l-250 -465v-235h-120zM272 760l110 150h130l-128 -150h-112z" />
    <glyph glyph-name="Thorn" unicode="&#xde;" horiz-adv-x="600" 
d="M70 0v700h120v-109h120q270 0 270 -231q0 -107 -69.5 -169t-200.5 -62h-120v-129h-120zM310 485h-120v-250h120q70 0 107 33.5t37 91.5q0 125 -144 125z" />
    <glyph glyph-name="germandbls" unicode="&#xdf;" horiz-adv-x="560" 
d="M65 0v485q0 101 61.5 162.5t163.5 61.5q101 0 158 -54t57 -145q0 -83 -76 -133q96 -41 96 -149v-32q0 -196 -215 -196h-60v102h60q44 0 68.5 25t24.5 69v32q0 44 -24.5 68.5t-68.5 24.5h-60v98h40q43 0 68 24.5t25 66.5t-25 66.5t-68 24.5q-50 0 -79.5 -31t-29.5 -85
v-485h-116z" />
    <glyph glyph-name="agrave" unicode="&#xe0;" horiz-adv-x="520" 
d="M195 -9q-80 0 -122.5 40t-42.5 111q0 82 54.5 125t175.5 43h84v30q0 73 -84 73q-76 0 -84 -58h-126q4 70 56.5 112t153.5 42q98 0 149 -45.5t51 -123.5v-340h-91l-12 69q-55 -78 -162 -78zM215 87q55 0 92 35t37 83v15h-84q-108 0 -108 -74q0 -27 16.5 -43t46.5 -16z
M200 560l-130 150h126l114 -150h-110z" />
    <glyph glyph-name="aacute" unicode="&#xe1;" horiz-adv-x="520" 
d="M195 -9q-80 0 -122.5 40t-42.5 111q0 82 54.5 125t175.5 43h84v30q0 73 -84 73q-76 0 -84 -58h-126q4 70 56.5 112t153.5 42q98 0 149 -45.5t51 -123.5v-340h-91l-12 69q-55 -78 -162 -78zM215 87q55 0 92 35t37 83v15h-84q-108 0 -108 -74q0 -27 16.5 -43t46.5 -16z
M200 560l114 150h126l-130 -150h-110z" />
    <glyph glyph-name="acircumflex" unicode="&#xe2;" horiz-adv-x="520" 
d="M195 -9q-80 0 -122.5 40t-42.5 111q0 82 54.5 125t175.5 43h84v30q0 73 -84 73q-76 0 -84 -58h-126q4 70 56.5 112t153.5 42q98 0 149 -45.5t51 -123.5v-340h-91l-12 69q-55 -78 -162 -78zM215 87q55 0 92 35t37 83v15h-84q-108 0 -108 -74q0 -27 16.5 -43t46.5 -16z
M322 560l-67 76l-67 -76h-108l114 150h122l114 -150h-108z" />
    <glyph glyph-name="atilde" unicode="&#xe3;" horiz-adv-x="520" 
d="M195 -9q-80 0 -122.5 40t-42.5 111q0 82 54.5 125t175.5 43h84v30q0 73 -84 73q-76 0 -84 -58h-126q4 70 56.5 112t153.5 42q98 0 149 -45.5t51 -123.5v-340h-91l-12 69q-55 -78 -162 -78zM215 87q55 0 92 35t37 83v15h-84q-108 0 -108 -74q0 -27 16.5 -43t46.5 -16z
M320 561q-31 0 -56 15.5t-42.5 31t-31.5 15.5q-30 0 -30 -48h-70q0 134 100 134q31 0 55.5 -15.5t42.5 -31t32 -15.5q30 0 30 48h70q0 -134 -100 -134z" />
    <glyph glyph-name="adieresis" unicode="&#xe4;" horiz-adv-x="520" 
d="M195 -9q-80 0 -122.5 40t-42.5 111q0 82 54.5 125t175.5 43h84v30q0 73 -84 73q-76 0 -84 -58h-126q4 70 56.5 112t153.5 42q98 0 149 -45.5t51 -123.5v-340h-91l-12 69q-55 -78 -162 -78zM215 87q55 0 92 35t37 83v15h-84q-108 0 -108 -74q0 -27 16.5 -43t46.5 -16z
M160 565q-29 0 -49.5 20.5t-20.5 49.5t20.5 49.5t49.5 20.5t49.5 -20.5t20.5 -49.5t-20.5 -49.5t-49.5 -20.5zM350 565q-29 0 -49.5 20.5t-20.5 49.5t20.5 49.5t49.5 20.5t49.5 -20.5t20.5 -49.5t-20.5 -49.5t-49.5 -20.5z" />
    <glyph glyph-name="aring" unicode="&#xe5;" horiz-adv-x="520" 
d="M195 -9q-80 0 -122.5 40t-42.5 111q0 82 54.5 125t175.5 43h84v30q0 73 -84 73q-76 0 -84 -58h-126q4 70 56.5 112t153.5 42q98 0 149 -45.5t51 -123.5v-340h-91l-12 69q-55 -78 -162 -78zM215 87q55 0 92 35t37 83v15h-84q-108 0 -108 -74q0 -27 16.5 -43t46.5 -16z
M255 526q-51 0 -83 30.5t-32 78.5t32 78.5t83 30.5t83 -30.5t32 -78.5t-32 -78.5t-83 -30.5zM255 590q19 0 31 12.5t12 32.5t-12 32.5t-31 12.5t-31 -12.5t-12 -32.5t12 -32.5t31 -12.5z" />
    <glyph glyph-name="ae" unicode="&#xe6;" horiz-adv-x="855" 
d="M205 -9q-86 0 -130.5 39.5t-44.5 109.5q0 165 230 165h86v35q0 73 -85 73q-77 0 -85 -58h-126q4 70 56.5 112t154.5 42q112 0 163 -64q66 64 161 64q110 0 172.5 -68t62.5 -191l-1 -35h-357q7 -122 123 -122q91 0 110 62h120q-16 -75 -73 -119.5t-157 -44.5
q-133 0 -192 93q-55 -93 -188 -93zM215 87q64 0 97.5 31t33.5 87v10h-86q-108 0 -108 -70q0 -27 16.5 -42.5t46.5 -15.5zM585 407q-107 0 -121 -102h238q-14 102 -117 102z" />
    <glyph glyph-name="ccedilla" unicode="&#xe7;" horiz-adv-x="505" 
d="M214 -88l20 81q-93 11 -146 74t-53 167v32q0 112 64 177.5t171 65.5q91 0 145 -45.5t70 -123.5h-124q-8 28 -33.5 44.5t-62.5 16.5q-48 0 -78 -33.5t-30 -101.5v-32q0 -67 31 -101t77 -34q78 0 96 66h124q-14 -74 -60 -119.5t-123 -52.5l-6 -23q64 -15 64 -76
q0 -45 -26 -69.5t-75 -24.5h-79v76h65q19 0 19 18t-19 18h-31z" />
    <glyph glyph-name="egrave" unicode="&#xe8;" horiz-adv-x="540" 
d="M270 -9q-108 0 -171.5 65t-63.5 178v32q0 113 63.5 178t171.5 65q110 0 172.5 -68t62.5 -191v-39h-354q9 -118 119 -118q91 0 110 62h120q-16 -75 -73 -119.5t-157 -44.5zM270 407q-103 0 -117 -104h234q-13 104 -117 104zM215 560l-130 150h126l114 -150h-110z" />
    <glyph glyph-name="eacute" unicode="&#xe9;" horiz-adv-x="540" 
d="M270 -9q-108 0 -171.5 65t-63.5 178v32q0 113 63.5 178t171.5 65q110 0 172.5 -68t62.5 -191v-39h-354q9 -118 119 -118q91 0 110 62h120q-16 -75 -73 -119.5t-157 -44.5zM270 407q-103 0 -117 -104h234q-13 104 -117 104zM215 560l114 150h126l-130 -150h-110z" />
    <glyph glyph-name="ecircumflex" unicode="&#xea;" horiz-adv-x="540" 
d="M270 -9q-108 0 -171.5 65t-63.5 178v32q0 113 63.5 178t171.5 65q110 0 172.5 -68t62.5 -191v-39h-354q9 -118 119 -118q91 0 110 62h120q-16 -75 -73 -119.5t-157 -44.5zM270 407q-103 0 -117 -104h234q-13 104 -117 104zM337 560l-67 76l-67 -76h-108l114 150h122
l114 -150h-108z" />
    <glyph glyph-name="edieresis" unicode="&#xeb;" horiz-adv-x="540" 
d="M270 -9q-108 0 -171.5 65t-63.5 178v32q0 113 63.5 178t171.5 65q110 0 172.5 -68t62.5 -191v-39h-354q9 -118 119 -118q91 0 110 62h120q-16 -75 -73 -119.5t-157 -44.5zM270 407q-103 0 -117 -104h234q-13 104 -117 104zM175 565q-29 0 -49.5 20.5t-20.5 49.5
t20.5 49.5t49.5 20.5t49.5 -20.5t20.5 -49.5t-20.5 -49.5t-49.5 -20.5zM365 565q-29 0 -49.5 20.5t-20.5 49.5t20.5 49.5t49.5 20.5t49.5 -20.5t20.5 -49.5t-20.5 -49.5t-49.5 -20.5z" />
    <glyph glyph-name="igrave" unicode="&#xec;" horiz-adv-x="256" 
d="M70 0v500h116v-500h-116zM73 560l-130 150h126l114 -150h-110z" />
    <glyph glyph-name="iacute" unicode="&#xed;" horiz-adv-x="256" 
d="M70 0v500h116v-500h-116zM73 560l114 150h126l-130 -150h-110z" />
    <glyph glyph-name="icircumflex" unicode="&#xee;" horiz-adv-x="256" 
d="M70 0v500h116v-500h-116zM195 560l-67 76l-67 -76h-108l114 150h122l114 -150h-108z" />
    <glyph glyph-name="idieresis" unicode="&#xef;" horiz-adv-x="256" 
d="M70 0v500h116v-500h-116zM33 565q-29 0 -49.5 20.5t-20.5 49.5t20.5 49.5t49.5 20.5t49.5 -20.5t20.5 -49.5t-20.5 -49.5t-49.5 -20.5zM223 565q-29 0 -49.5 20.5t-20.5 49.5t20.5 49.5t49.5 20.5t49.5 -20.5t20.5 -49.5t-20.5 -49.5t-49.5 -20.5z" />
    <glyph glyph-name="eth" unicode="&#xf0;" horiz-adv-x="545" 
d="M145 513v64l70 35q-39 38 -100 88h135q32 -28 49 -45l106 54v-64l-63 -32q163 -170 163 -345v-39q0 -108 -64 -173t-171 -65t-171 63.5t-64 169.5v32q0 104 62 168.5t158 64.5q44 0 81 -14q-32 46 -79 95zM270 99q53 0 83 32.5t30 92.5v38q-1 56 -31.5 87.5t-81.5 31.5
q-52 0 -82.5 -33t-30.5 -92v-32q0 -58 31 -91.5t82 -33.5z" />
    <glyph glyph-name="ntilde" unicode="&#xf1;" horiz-adv-x="575" 
d="M65 0v500h91l9 -56q56 65 155 65q93 0 144 -55.5t51 -163.5v-290h-116v290q0 54 -26 82.5t-73 28.5q-53 0 -85 -29t-34 -77v-295h-116zM355 561q-31 0 -56 15.5t-42.5 31t-31.5 15.5q-30 0 -30 -48h-70q0 134 100 134q25 0 46 -9.5t32.5 -21.5t25.5 -21.5t26 -9.5
q30 0 30 48h70q0 -134 -100 -134z" />
    <glyph glyph-name="ograve" unicode="&#xf2;" horiz-adv-x="550" 
d="M275 -9q-113 0 -176.5 64t-63.5 179v32q0 113 64.5 178t175.5 65q113 0 176.5 -64t63.5 -179v-32q0 -113 -64.5 -178t-175.5 -65zM275 99q118 0 118 135v32q0 66 -31 100.5t-87 34.5q-118 0 -118 -135v-32q0 -66 31 -100.5t87 -34.5zM220 560l-130 150h126l114 -150h-110
z" />
    <glyph glyph-name="oacute" unicode="&#xf3;" horiz-adv-x="550" 
d="M275 -9q-113 0 -176.5 64t-63.5 179v32q0 113 64.5 178t175.5 65q113 0 176.5 -64t63.5 -179v-32q0 -113 -64.5 -178t-175.5 -65zM275 99q118 0 118 135v32q0 66 -31 100.5t-87 34.5q-118 0 -118 -135v-32q0 -66 31 -100.5t87 -34.5zM220 560l114 150h126l-130 -150h-110
z" />
    <glyph glyph-name="ocircumflex" unicode="&#xf4;" horiz-adv-x="550" 
d="M275 -9q-113 0 -176.5 64t-63.5 179v32q0 113 64.5 178t175.5 65q113 0 176.5 -64t63.5 -179v-32q0 -113 -64.5 -178t-175.5 -65zM275 99q118 0 118 135v32q0 66 -31 100.5t-87 34.5q-118 0 -118 -135v-32q0 -66 31 -100.5t87 -34.5zM342 560l-67 76l-67 -76h-108
l114 150h122l114 -150h-108z" />
    <glyph glyph-name="otilde" unicode="&#xf5;" horiz-adv-x="550" 
d="M275 -9q-113 0 -176.5 64t-63.5 179v32q0 113 64.5 178t175.5 65q113 0 176.5 -64t63.5 -179v-32q0 -113 -64.5 -178t-175.5 -65zM275 99q118 0 118 135v32q0 66 -31 100.5t-87 34.5q-118 0 -118 -135v-32q0 -66 31 -100.5t87 -34.5zM340 561q-31 0 -56 15.5t-42.5 31
t-31.5 15.5q-30 0 -30 -48h-70q0 134 100 134q31 0 55.5 -15.5t42.5 -31t32 -15.5q30 0 30 48h70q0 -134 -100 -134z" />
    <glyph glyph-name="odieresis" unicode="&#xf6;" horiz-adv-x="550" 
d="M275 -9q-113 0 -176.5 64t-63.5 179v32q0 113 64.5 178t175.5 65q113 0 176.5 -64t63.5 -179v-32q0 -113 -64.5 -178t-175.5 -65zM275 99q118 0 118 135v32q0 66 -31 100.5t-87 34.5q-118 0 -118 -135v-32q0 -66 31 -100.5t87 -34.5zM180 565q-29 0 -49.5 20.5
t-20.5 49.5t20.5 49.5t49.5 20.5t49.5 -20.5t20.5 -49.5t-20.5 -49.5t-49.5 -20.5zM370 565q-29 0 -49.5 20.5t-20.5 49.5t20.5 49.5t49.5 20.5t49.5 -20.5t20.5 -49.5t-20.5 -49.5t-49.5 -20.5z" />
    <glyph glyph-name="divide" unicode="&#xf7;" 
d="M65 307v106h460v-106h-460zM295 490q-34 0 -57 23.5t-23 56.5t23 56.5t57 23.5t57 -23.5t23 -56.5t-23 -56.5t-57 -23.5zM295 70q-34 0 -57 23.5t-23 56.5t23 56.5t57 23.5t57 -23.5t23 -56.5t-23 -56.5t-57 -23.5z" />
    <glyph glyph-name="oslash" unicode="&#xf8;" horiz-adv-x="550" 
d="M85 -9l-50 46l41 45q-41 61 -41 152v32q0 115 63.5 179t176.5 64q91 0 151 -43l39 43l50 -46l-42 -46q42 -61 42 -151v-32q0 -115 -63.5 -179t-176.5 -64q-93 0 -151 42zM157 234q0 -34 7 -56l183 202q-29 21 -72 21q-56 0 -87 -34.5t-31 -100.5v-32zM275 99
q56 0 87 34.5t31 100.5v32q0 27 -7 55l-184 -201q29 -21 73 -21z" />
    <glyph glyph-name="ugrave" unicode="&#xf9;" horiz-adv-x="565" 
d="M250 -9q-90 0 -140 56t-50 163v290h116v-290q0 -54 25.5 -82.5t68.5 -28.5q50 0 81 29t33 77v295h116v-500h-91l-9 55q-56 -64 -150 -64zM225 560l-130 150h126l114 -150h-110z" />
    <glyph glyph-name="uacute" unicode="&#xfa;" horiz-adv-x="565" 
d="M250 -9q-90 0 -140 56t-50 163v290h116v-290q0 -54 25.5 -82.5t68.5 -28.5q50 0 81 29t33 77v295h116v-500h-91l-9 55q-56 -64 -150 -64zM225 560l114 150h126l-130 -150h-110z" />
    <glyph glyph-name="ucircumflex" unicode="&#xfb;" horiz-adv-x="565" 
d="M250 -9q-90 0 -140 56t-50 163v290h116v-290q0 -54 25.5 -82.5t68.5 -28.5q50 0 81 29t33 77v295h116v-500h-91l-9 55q-56 -64 -150 -64zM347 560l-67 76l-67 -76h-108l114 150h122l114 -150h-108z" />
    <glyph glyph-name="udieresis" unicode="&#xfc;" horiz-adv-x="565" 
d="M250 -9q-90 0 -140 56t-50 163v290h116v-290q0 -54 25.5 -82.5t68.5 -28.5q50 0 81 29t33 77v295h116v-500h-91l-9 55q-56 -64 -150 -64zM185 565q-29 0 -49.5 20.5t-20.5 49.5t20.5 49.5t49.5 20.5t49.5 -20.5t20.5 -49.5t-20.5 -49.5t-49.5 -20.5zM375 565
q-29 0 -49.5 20.5t-20.5 49.5t20.5 49.5t49.5 20.5t49.5 -20.5t20.5 -49.5t-20.5 -49.5t-49.5 -20.5z" />
    <glyph glyph-name="yacute" unicode="&#xfd;" horiz-adv-x="520" 
d="M130 -200l76 200l-201 500h126l136 -358l128 358h120l-265 -700h-120zM208 560l114 150h126l-130 -150h-110z" />
    <glyph glyph-name="thorn" unicode="&#xfe;" horiz-adv-x="560" 
d="M327 -9q-94 0 -146 59v-250h-116v900h116v-250q53 59 146 59q89 0 143.5 -63t54.5 -180v-32q0 -116 -55 -179.5t-143 -63.5zM292 99q111 0 111 135v32q0 67 -29.5 101t-81.5 34q-49 0 -79.5 -34t-31.5 -95v-38q0 -64 30.5 -99.5t80.5 -35.5z" />
    <glyph glyph-name="ydieresis" unicode="&#xff;" horiz-adv-x="520" 
d="M130 -200l76 200l-201 500h126l136 -358l128 358h120l-265 -700h-120zM168 565q-29 0 -49.5 20.5t-20.5 49.5t20.5 49.5t49.5 20.5t49.5 -20.5t20.5 -49.5t-20.5 -49.5t-49.5 -20.5zM358 565q-29 0 -49.5 20.5t-20.5 49.5t20.5 49.5t49.5 20.5t49.5 -20.5t20.5 -49.5
t-20.5 -49.5t-49.5 -20.5z" />
    <glyph glyph-name="OE" unicode="&#x152;" horiz-adv-x="960" 
d="M469 0v10q-52 -19 -113 -19q-142 0 -226.5 88.5t-84.5 244.5v52q0 155 84.5 244t226.5 89q61 0 113 -19v10h451v-106h-330v-181h270v-106h-270v-201h330v-106h-451zM356 103q64 0 113 28v437q-51 29 -113 29q-86 0 -135.5 -56.5t-49.5 -164.5v-52q0 -106 50.5 -163.5
t134.5 -57.5z" />
    <glyph glyph-name="oe" unicode="&#x153;" horiz-adv-x="910" 
d="M637 -9q-119 0 -179 85q-58 -85 -183 -85q-113 0 -176.5 64t-63.5 179v32q0 115 63.5 179t176.5 64q125 0 183 -85q60 85 179 85q112 0 175 -68t63 -191v-39h-360q9 -118 122 -118q94 0 113 62h120q-16 -75 -73.5 -119.5t-159.5 -44.5zM275 99q56 0 87 34.5t31 100.5v32
q0 66 -31 100.5t-87 34.5t-87 -34.5t-31 -100.5v-32q0 -66 31 -100.5t87 -34.5zM637 407q-109 0 -121 -111h242q-6 58 -35.5 84.5t-85.5 26.5z" />
    <glyph glyph-name="Ydieresis" unicode="&#x178;" horiz-adv-x="650" 
d="M270 0v235l-260 465h136l186 -342l178 342h130l-250 -465v-235h-120zM223 765q-29 0 -49.5 20.5t-20.5 49.5t20.5 49.5t49.5 20.5t49.5 -20.5t20.5 -49.5t-20.5 -49.5t-49.5 -20.5zM433 765q-29 0 -49.5 20.5t-20.5 49.5t20.5 49.5t49.5 20.5t49.5 -20.5t20.5 -49.5
t-20.5 -49.5t-49.5 -20.5z" />
    <glyph glyph-name="circumflex" unicode="&#x2c6;" horiz-adv-x="360" 
d="M247 560l-67 76l-67 -76h-108l114 150h122l114 -150h-108z" />
    <glyph glyph-name="tilde" unicode="&#x2dc;" horiz-adv-x="340" 
d="M235 561q-31 0 -56 15.5t-42.5 31t-31.5 15.5q-30 0 -30 -48h-70q0 134 100 134q25 0 46 -9.5t32.5 -21.5t25.5 -21.5t26 -9.5q30 0 30 48h70q0 -134 -100 -134z" />
    <glyph glyph-name="uni2000" unicode="&#x2000;" horiz-adv-x="472" 
 />
    <glyph glyph-name="uni2001" unicode="&#x2001;" horiz-adv-x="944" 
 />
    <glyph glyph-name="uni2002" unicode="&#x2002;" horiz-adv-x="472" 
 />
    <glyph glyph-name="uni2003" unicode="&#x2003;" horiz-adv-x="944" 
 />
    <glyph glyph-name="uni2004" unicode="&#x2004;" horiz-adv-x="314" 
 />
    <glyph glyph-name="uni2005" unicode="&#x2005;" horiz-adv-x="236" 
 />
    <glyph glyph-name="uni2006" unicode="&#x2006;" horiz-adv-x="157" 
 />
    <glyph glyph-name="uni2007" unicode="&#x2007;" horiz-adv-x="157" 
 />
    <glyph glyph-name="uni2008" unicode="&#x2008;" horiz-adv-x="118" 
 />
    <glyph glyph-name="uni2009" unicode="&#x2009;" horiz-adv-x="188" 
 />
    <glyph glyph-name="uni200A" unicode="&#x200a;" horiz-adv-x="52" 
 />
    <glyph glyph-name="uni2010" unicode="&#x2010;" horiz-adv-x="400" 
d="M40 207v106h320v-106h-320z" />
    <glyph glyph-name="uni2011" unicode="&#x2011;" horiz-adv-x="400" 
d="M40 207v106h320v-106h-320z" />
    <glyph glyph-name="figuredash" unicode="&#x2012;" horiz-adv-x="400" 
d="M40 207v106h320v-106h-320z" />
    <glyph glyph-name="endash" unicode="&#x2013;" 
d="M40 207v106h510v-106h-510z" />
    <glyph glyph-name="emdash" unicode="&#x2014;" horiz-adv-x="700" 
d="M40 207v106h620v-106h-620z" />
    <glyph glyph-name="quoteleft" unicode="&#x2018;" horiz-adv-x="250" 
d="M210 700l-46 -275h-124l83 275h87z" />
    <glyph glyph-name="quoteright" unicode="&#x2019;" horiz-adv-x="250" 
d="M40 425l46 275h124l-83 -275h-87z" />
    <glyph glyph-name="quotesinglbase" unicode="&#x201a;" horiz-adv-x="250" 
d="M25 -150l46 275h124l-83 -275h-87z" />
    <glyph glyph-name="quotedblleft" unicode="&#x201c;" horiz-adv-x="420" 
d="M380 700l-46 -275h-124l83 275h87zM210 700l-46 -275h-124l83 275h87z" />
    <glyph glyph-name="quotedblright" unicode="&#x201d;" horiz-adv-x="420" 
d="M210 425l46 275h124l-83 -275h-87zM40 425l46 275h124l-83 -275h-87z" />
    <glyph glyph-name="quotedblbase" unicode="&#x201e;" horiz-adv-x="420" 
d="M195 -150l46 275h124l-83 -275h-87zM25 -150l46 275h124l-83 -275h-87z" />
    <glyph glyph-name="bullet" unicode="&#x2022;" horiz-adv-x="450" 
d="M225 121q-58 0 -98.5 40.5t-40.5 98.5t40.5 98.5t98.5 40.5t98.5 -40.5t40.5 -98.5t-40.5 -98.5t-98.5 -40.5z" />
    <glyph glyph-name="ellipsis" unicode="&#x2026;" horiz-adv-x="860" 
d="M125 -9q-34 0 -57 23.5t-23 56.5t23 56.5t57 23.5t57 -23.5t23 -56.5t-23 -56.5t-57 -23.5zM430 -9q-34 0 -57 23.5t-23 56.5t23 56.5t57 23.5t57 -23.5t23 -56.5t-23 -56.5t-57 -23.5zM735 -9q-34 0 -57 23.5t-23 56.5t23 56.5t57 23.5t57 -23.5t23 -56.5t-23 -56.5
t-57 -23.5z" />
    <glyph glyph-name="uni202F" unicode="&#x202f;" horiz-adv-x="188" 
 />
    <glyph glyph-name="guilsinglleft" unicode="&#x2039;" horiz-adv-x="300" 
d="M25 259l121 201h124l-119 -199l119 -201h-127z" />
    <glyph glyph-name="guilsinglright" unicode="&#x203a;" horiz-adv-x="300" 
d="M275 261l-121 -201h-124l119 199l-119 201h127z" />
    <glyph glyph-name="uni205F" unicode="&#x205f;" horiz-adv-x="236" 
 />
    <glyph glyph-name="Euro" unicode="&#x20ac;" horiz-adv-x="620" 
d="M5 381l25 88h93q21 114 94 172.5t188 58.5h190l-31 -106h-159q-66 0 -104.5 -29t-53.5 -96h281l-25 -88h-264v-5v-52v-5h246l-25 -88h-213q15 -66 53.5 -95.5t104.5 -29.5h180v-106h-180q-241 0 -283 231h-117l25 88h85v5v52v5h-110z" />
    <glyph glyph-name="trademark" unicode="&#x2122;" horiz-adv-x="850" 
d="M581 410l-60 134l-19 51v-295h-87v400h115l94 -205l95 205h111v-400h-87v295l-19 -51l-59 -134h-84zM20 623v77h338v-77h-124v-323h-90v323h-124z" />
    <glyph glyph-name="uni25FC" unicode="&#x25fc;" horiz-adv-x="500" 
d="M0 500h500v-500h-500v500z" />
    <glyph glyph-name="uniFB01" unicode="&#xfb01;" horiz-adv-x="585" 
d="M404 0v398h-188v-398h-116v398h-90v102h90v35q0 79 42.5 122t119.5 43h158v-102h-140q-64 0 -64 -71v-27h304v-500h-116z" />
    <glyph glyph-name="uniFB02" unicode="&#xfb02;" horiz-adv-x="625" 
d="M569 0q-79 0 -121.5 43t-42.5 122v433h-125q-64 0 -64 -71v-27h94v-102h-94v-398h-116v398h-90v102h90v35q0 79 42.5 122t119.5 43h259v-523q0 -75 69 -75h25v-102h-46z" />
    <glyph glyph-name="uniFB03" unicode="&#xfb03;" horiz-adv-x="900" 
d="M415 0v398h-199v-398h-116v398h-90v102h90v35q0 79 42.5 122t119.5 43h58v-102h-40q-64 0 -64 -71v-27h199v35q0 79 42.5 122t119.5 43h158v-102h-140q-64 0 -64 -71v-27h304v-500h-116v398h-188v-398h-116z" />
    <glyph glyph-name="uniFB04" unicode="&#xfb04;" horiz-adv-x="940" 
d="M415 0v398h-199v-398h-116v398h-90v102h90v35q0 79 42.5 122t119.5 43h58v-102h-40q-64 0 -64 -71v-27h199v35q0 79 42.5 122t119.5 43h259v-523q0 -75 69 -75h25v-102h-46q-79 0 -121.5 43t-42.5 122v433h-125q-64 0 -64 -71v-27h94v-102h-94v-398h-116z" />
    </font>
</defs>
</svg>
