<?xml version="1.0" standalone="no"?>
<!DOCTYPE svg PUBLIC "-//W3C//DTD SVG 1.1//EN" "http://www.w3.org/Graphics/SVG/1.1/DTD/svg11.dtd" >
<svg xmlns="http://www.w3.org/2000/svg" xmlns:xlink="http://www.w3.org/1999/xlink" version="1.1">
<metadata>
Created by FontForge 20190801 at Mon Dec 31 18:51:07 2018
 By Jimmy Wärting
Copyright (c) 2018 ParaType Inc., ParaType Ltd. All rights reserved.
</metadata>
<defs>
<font id="PTRootUI-Medium" horiz-adv-x="590" >
  <font-face 
    font-family="PT Root UI Medium"
    font-weight="500"
    font-stretch="normal"
    units-per-em="1000"
    panose-1="2 11 5 3 2 2 2 2 2 4"
    ascent="772"
    descent="-228"
    x-height="500"
    cap-height="700"
    bbox="-47 -208 985 940"
    underline-thickness="50"
    underline-position="-300"
    unicode-range="U+0020-FB04"
  />
<missing-glyph horiz-adv-x="364" 
d="M33 0v666h265v-666h-265zM66 33h199v600h-199v-600z" />
    <glyph glyph-name=".notdef" horiz-adv-x="364" 
d="M33 0v666h265v-666h-265zM66 33h199v600h-199v-600z" />
    <glyph glyph-name="glyph1" horiz-adv-x="0" 
 />
    <glyph glyph-name="glyph2" horiz-adv-x="333" 
 />
    <glyph glyph-name="space" unicode=" " horiz-adv-x="250" 
 />
    <glyph glyph-name="exclam" unicode="!" horiz-adv-x="300" 
d="M150 -8q-30 0 -50 20t-20 50t20 50t50 20t50 -20t20 -50t-20 -50t-50 -20zM103 200v500h94v-500h-94z" />
    <glyph glyph-name="quotedbl" unicode="&#x22;" horiz-adv-x="400" 
d="M253 450v250h94v-250h-94zM53 450v250h94v-250h-94z" />
    <glyph glyph-name="numbersign" unicode="#" 
d="M302 0l35 200h-139l-35 -200h-84l35 200h-99l16 80h98l28 160h-98l14 80h99l32 180h84l-32 -180h139l32 180h84l-32 -180h96l-14 -80h-97l-28 -160h96l-15 -80h-96l-35 -200h-84zM241 440l-28 -160h139l28 160h-139z" />
    <glyph glyph-name="dollar" unicode="$" horiz-adv-x="610" 
d="M263 -100v94q-200 18 -213 231h100q5 -65 32 -98.5t81 -41.5v239q-36 10 -60.5 18.5t-54 24.5t-47 35t-29.5 49t-12 67q0 76 52.5 127.5t150.5 60.5v94h84v-94q189 -17 203 -211h-100q-8 56 -31.5 84.5t-71.5 35.5v-220q48 -13 78.5 -25t65.5 -35t52 -59t17 -85
q0 -83 -54 -135.5t-159 -61.5v-94h-84zM462 192q0 42 -29.5 66.5t-85.5 41.5v-216q57 8 86 37t29 71zM158 518q0 -38 27 -60.5t78 -38.5v196q-53 -8 -79 -34t-26 -63z" />
    <glyph glyph-name="percent" unicode="%" horiz-adv-x="900" 
d="M210 342q-76 0 -123 46t-47 118v38q0 72 47 118t123 46q75 0 122.5 -46t47.5 -118v-38q0 -72 -47.5 -118t-122.5 -46zM210 420q40 0 62 22t22 64v38q0 41 -22.5 63.5t-61.5 22.5t-61.5 -22.5t-22.5 -63.5v-38q0 -41 22.5 -63.5t61.5 -22.5zM690 -8q-76 0 -123 46t-47 118
v38q0 72 47 118t123 46q75 0 122.5 -46t47.5 -118v-38q0 -72 -47.5 -118t-122.5 -46zM690 70q40 0 62 22t22 64v38q0 41 -22.5 63.5t-61.5 22.5t-61.5 -22.5t-22.5 -63.5v-38q0 -41 22.5 -63.5t61.5 -22.5zM200 0l404 700h96l-404 -700h-96z" />
    <glyph glyph-name="ampersand" unicode="&#x26;" horiz-adv-x="640" 
d="M530 0l-64 67q-83 -75 -196 -75q-101 0 -160.5 54t-59.5 138q0 54 25.5 99.5t92.5 96.5q-50 55 -66.5 92t-16.5 83q0 67 46.5 110t123.5 43t123.5 -43t46.5 -110q0 -98 -123 -185l151 -161q23 58 23 121h94q0 -110 -49 -194l129 -136h-120zM270 78q77 0 132 55l-177 185
q-50 -37 -65.5 -67.5t-15.5 -65.5q0 -46 34.5 -76.5t91.5 -30.5zM179 555q0 -32 12 -55t52 -68q53 38 70.5 66t17.5 57q0 28 -21 47.5t-55 19.5t-55 -19t-21 -48z" />
    <glyph glyph-name="quotesingle" unicode="'" horiz-adv-x="200" 
d="M53 450v250h94v-250h-94z" />
    <glyph glyph-name="parenleft" unicode="(" horiz-adv-x="400" 
d="M80 250q0 78 18.5 153.5t44.5 126.5t52 91.5t45 59.5l18 19h112q-8 -7 -21 -20t-46 -57.5t-58 -93t-46 -125t-21 -154.5t20 -153.5t48 -126.5t56 -91.5t48 -59.5l20 -19h-116q-7 7 -19 20t-42 57.5t-52.5 93t-41.5 125t-19 154.5z" />
    <glyph glyph-name="parenright" unicode=")" horiz-adv-x="400" 
d="M320 250q0 -78 -18.5 -153.5t-44.5 -126.5t-52 -91.5t-45 -59.5l-18 -19h-112q8 7 21 20t46 57.5t58 93t46 125t21 154.5t-20 153.5t-48 126.5t-56 91.5t-48 59.5l-20 19h116q7 -7 19 -20t42 -57.5t52.5 -93t41.5 -125t19 -154.5z" />
    <glyph glyph-name="asterisk" unicode="*" horiz-adv-x="390" 
d="M20 508v60h123l-63 110l52 30l63 -110l63 110l52 -30l-63 -110h123v-60h-124l63 -110l-51 -30l-63 109l-63 -109l-52 30l63 110h-123z" />
    <glyph glyph-name="plus" unicode="+" 
d="M70 317v86h180v184h90v-184h180v-86h-180v-184h-90v184h-180z" />
    <glyph glyph-name="comma" unicode="," horiz-adv-x="250" 
d="M35 -150l48 255h102l-79 -255h-71z" />
    <glyph glyph-name="hyphen" unicode="-" horiz-adv-x="400" 
d="M45 217v86h310v-86h-310z" />
    <glyph glyph-name="period" unicode="." horiz-adv-x="250" 
d="M125 -8q-30 0 -50 20t-20 50t20 50t50 20t50 -20t20 -50t-20 -50t-50 -20z" />
    <glyph glyph-name="slash" unicode="/" horiz-adv-x="450" 
d="M15 -200l324 900h96l-324 -900h-96z" />
    <glyph glyph-name="zero" unicode="0" horiz-adv-x="610" 
d="M305 -8q-240 0 -240 329v58q0 329 240 329t240 -329v-58q0 -329 -240 -329zM305 82q70 0 106 53.5t36 185.5v58q0 130 -36.5 184.5t-105.5 54.5q-70 0 -106 -53.5t-36 -185.5v-58q0 -130 36.5 -184.5t105.5 -54.5z" />
    <glyph glyph-name="one" unicode="1" horiz-adv-x="350" 
d="M20 497v102l146 101h94v-700h-94v596z" />
    <glyph glyph-name="two" unicode="2" horiz-adv-x="550" 
d="M40 0v86l239 231q68 66 95.5 105.5t27.5 76.5q0 53 -36 86t-96 33t-96 -33.5t-36 -89.5h-98q0 94 63 153.5t167 59.5t167 -58.5t63 -150.5q0 -53 -37.5 -109.5t-114.5 -129.5l-184 -174h336v-86h-460z" />
    <glyph glyph-name="three" unicode="3" horiz-adv-x="580" 
d="M285 -8q-111 0 -174 61t-66 172h98q8 -143 142 -143q69 0 105.5 32t36.5 87q0 53 -35 84.5t-98 31.5h-94v86h94q55 0 86.5 29t31.5 78q0 50 -32.5 79t-94.5 29q-116 0 -127 -123h-98q3 100 62 156.5t163 56.5q107 0 166 -53.5t59 -142.5q0 -104 -88 -151
q103 -48 103 -162q0 -94 -63 -150.5t-177 -56.5z" />
    <glyph glyph-name="four" unicode="4" horiz-adv-x="565" 
d="M20 157v86l310 457h122v-457h88v-86h-88v-157h-94v157h-338zM123 243h235v352z" />
    <glyph glyph-name="five" unicode="5" horiz-adv-x="565" 
d="M65 317l30 383h385v-86h-299l-16 -192q55 47 137 47q98 0 160.5 -66t62.5 -172q0 -109 -65.5 -174t-174.5 -65q-92 0 -157 47t-83 133h98q34 -90 142 -90q66 0 104 39.5t38 109.5q0 69 -38 108.5t-104 39.5q-85 0 -127 -62h-93z" />
    <glyph glyph-name="six" unicode="6" horiz-adv-x="595" 
d="M305 -8q-113 0 -176.5 72.5t-63.5 226.5v58q0 359 245 359q81 0 134 -44.5t71 -118.5h-99q-27 73 -106 73q-69 0 -107.5 -49.5t-43.5 -169.5q56 69 151 69q105 0 165 -60.5t60 -168.5v-18q0 -103 -65.5 -166t-164.5 -63zM304 378q-66 0 -103.5 -36t-37.5 -98v-18
q0 -69 39.5 -106.5t102.5 -37.5q61 0 96.5 37.5t35.5 101.5v18q0 65 -36 102t-97 37z" />
    <glyph glyph-name="seven" unicode="7" horiz-adv-x="480" 
d="M15 614v86h450v-86l-253 -614h-102l255 614h-350z" />
    <glyph glyph-name="eight" unicode="8" 
d="M295 -8q-114 0 -177 55t-63 146q0 117 115 172q-95 49 -95 154q0 81 61 135t159 54q101 0 160.5 -52.5t59.5 -136.5q0 -103 -97 -153q117 -55 117 -173q0 -88 -64 -144.5t-176 -56.5zM295 82q65 0 103.5 33t38.5 79q0 56 -41 91t-101 41q-63 -6 -102.5 -40t-39.5 -92
q0 -47 38 -79.5t104 -32.5zM295 403q53 7 87.5 34t34.5 81q0 41 -33 70.5t-89 29.5t-89 -29.5t-33 -70.5q0 -51 36.5 -79.5t85.5 -35.5z" />
    <glyph glyph-name="nine" unicode="9" horiz-adv-x="595" 
d="M285 -8q-81 0 -134 44.5t-71 118.5h99q27 -73 106 -73q68 0 106.5 49.5t44.5 169.5q-55 -69 -151 -69q-105 0 -165 60.5t-60 168.5v18q0 103 65.5 166t164.5 63q113 0 176.5 -72.5t63.5 -226.5v-58q0 -359 -245 -359zM291 322q66 0 103.5 36t37.5 98v18q0 69 -39.5 106.5
t-102.5 37.5q-61 0 -96.5 -37.5t-35.5 -101.5v-18q0 -65 36 -102t97 -37z" />
    <glyph glyph-name="colon" unicode=":" horiz-adv-x="250" 
d="M125 368q-30 0 -50 20t-20 50t20 50t50 20t50 -20t20 -50t-20 -50t-50 -20zM125 -8q-30 0 -50 20t-20 50t20 50t50 20t50 -20t20 -50t-20 -50t-50 -20z" />
    <glyph glyph-name="semicolon" unicode=";" horiz-adv-x="250" 
d="M26 -150l48 255h102l-79 -255h-71zM125 368q-30 0 -50 20t-20 50t20 50t50 20t50 -20t20 -50t-20 -50t-50 -20z" />
    <glyph glyph-name="less" unicode="&#x3c;" 
d="M520 519l-348 -157l348 -157v-100l-450 205v100l450 205v-96z" />
    <glyph glyph-name="equal" unicode="=" 
d="M70 417v86h450v-86h-450zM70 217v86h450v-86h-450z" />
    <glyph glyph-name="greater" unicode="&#x3e;" 
d="M70 201l348 157l-348 157v100l450 -205v-100l-450 -205v96z" />
    <glyph glyph-name="question" unicode="?" horiz-adv-x="500" 
d="M198 204q0 59 17.5 100.5t42 64.5t49.5 42t42.5 46t17.5 63q0 44 -30.5 71t-86.5 27q-119 0 -127 -113h-98q4 92 62.5 147.5t157.5 55.5q104 0 162 -51t58 -132q0 -50 -18 -86.5t-43 -58.5t-50.5 -43.5t-43.5 -54.5t-18 -78h-94zM245 -8q-30 0 -50 20t-20 50t20 50t50 20
t50 -20t20 -50t-20 -50t-50 -20z" />
    <glyph glyph-name="at" unicode="@" horiz-adv-x="1050" 
d="M525 -208q-191 0 -325.5 134t-134.5 324t134.5 324t325.5 134q202 0 331 -118.5t129 -288.5q0 -134 -66 -209t-171 -75q-52 0 -87.5 20.5t-48.5 56.5q-63 -77 -161 -77q-72 0 -116 46.5t-44 125.5q0 15 11 81q17 94 79 153.5t145 59.5q87 0 126 -57l9 49h90l-53 -301
q0 -2 -1.5 -9.5t-1.5 -12.5q0 -22 14.5 -35.5t40.5 -13.5q57 0 100 54t43 144q0 137 -101.5 229t-266.5 92q-154 0 -262 -107.5t-108 -264.5q0 -156 108 -264t262 -108q128 0 230 41v-91q-88 -36 -230 -36zM480 104q52 0 88.5 34.5t47.5 91.5q12 58 12 79q0 40 -27 64
t-72 24q-50 0 -86 -35t-47 -92q-11 -52 -11 -79q0 -39 24.5 -63t70.5 -24z" />
    <glyph glyph-name="A" unicode="A" horiz-adv-x="650" 
d="M533 0l-68 192h-284l-68 -192h-98l255 700h110l255 -700h-102zM272 446l-60 -168h222l-59 168l-51 149z" />
    <glyph glyph-name="B" unicode="B" horiz-adv-x="620" 
d="M80 0v700h225q245 0 245 -187q0 -102 -90 -149q110 -44 110 -167q0 -98 -58.5 -147.5t-186.5 -49.5h-245zM325 318h-151v-232h151q79 0 113 28.5t34 87.5t-34 87.5t-113 28.5zM305 614h-131v-212h131q78 0 112.5 27t34.5 79t-34.5 79t-112.5 27z" />
    <glyph glyph-name="C" unicode="C" horiz-adv-x="670" 
d="M350 -8q-132 0 -213.5 88t-81.5 241v58q0 152 82 240.5t213 88.5q111 0 185 -62t90 -151h-102q-16 52 -61.5 87.5t-111.5 35.5q-87 0 -142 -63t-55 -176v-58q0 -112 55 -175.5t142 -63.5q68 0 112.5 39t60.5 104h102q-16 -102 -89.5 -167.5t-185.5 -65.5z" />
    <glyph glyph-name="D" unicode="D" horiz-adv-x="680" 
d="M80 0v700h220q156 0 240.5 -83.5t84.5 -236.5v-60q0 -151 -85.5 -235.5t-239.5 -84.5h-220zM300 614h-126v-528h126q227 0 227 234v60q0 115 -58.5 174.5t-168.5 59.5z" />
    <glyph glyph-name="E" unicode="E" horiz-adv-x="560" 
d="M80 0v700h435v-86h-341v-211h281v-86h-281v-231h341v-86h-435z" />
    <glyph glyph-name="F" unicode="F" horiz-adv-x="540" 
d="M80 0v700h435v-86h-341v-216h281v-86h-281v-312h-94z" />
    <glyph glyph-name="G" unicode="G" horiz-adv-x="680" 
d="M340 267v86h285v-43q0 -153 -74 -235.5t-201 -82.5q-134 0 -214.5 87.5t-80.5 241.5v58q0 154 81 241.5t214 87.5q112 0 183 -60t87 -153h-100q-16 54 -59.5 88.5t-110.5 34.5q-90 0 -143.5 -62t-53.5 -177v-58q0 -113 55 -176t142 -63q84 0 130 44.5t54 140.5h-194z" />
    <glyph glyph-name="H" unicode="H" horiz-adv-x="710" 
d="M536 0v317h-362v-317h-94v700h94v-297h362v297h94v-700h-94z" />
    <glyph glyph-name="I" unicode="I" horiz-adv-x="270" 
d="M88 0v700h94v-700h-94z" />
    <glyph glyph-name="J" unicode="J" horiz-adv-x="535" 
d="M240 -8q-98 0 -155 61.5t-65 171.5h94q4 -69 36 -106t90 -37q126 0 126 168v450h94v-450q0 -126 -58.5 -192t-161.5 -66z" />
    <glyph glyph-name="K" unicode="K" horiz-adv-x="635" 
d="M492 0l-225 319l-93 -110v-209h-94v700h94v-367l300 367h116l-258 -311l278 -389h-118z" />
    <glyph glyph-name="L" unicode="L" horiz-adv-x="515" 
d="M80 0v700h94v-614h321v-86h-415z" />
    <glyph glyph-name="M" unicode="M" horiz-adv-x="810" 
d="M358 195l-140 295l-44 105v-595h-94v700h134l193 -405l191 405h132v-700h-94v596l-45 -106l-139 -295h-94z" />
    <glyph glyph-name="N" unicode="N" horiz-adv-x="710" 
d="M496 0l-271 490l-51 102v-592h-94v700h134l271 -490l51 -102v592h94v-700h-134z" />
    <glyph glyph-name="O" unicode="O" horiz-adv-x="710" 
d="M355 -8q-135 0 -217.5 88t-82.5 241v58q0 152 83 240.5t217 88.5q135 0 217.5 -88t82.5 -241v-58q0 -152 -83 -240.5t-217 -88.5zM355 82q91 0 146.5 62.5t55.5 176.5v58q0 113 -56 176t-146 63q-91 0 -146.5 -62.5t-55.5 -176.5v-58q0 -113 56 -176t146 -63z" />
    <glyph glyph-name="P" unicode="P" horiz-adv-x="600" 
d="M80 0v700h230q260 0 260 -224q0 -106 -65.5 -165t-194.5 -59h-136v-252h-94zM310 614h-136v-276h136q85 0 124 34.5t39 103.5q0 70 -38.5 104t-124.5 34z" />
    <glyph glyph-name="Q" unicode="Q" horiz-adv-x="710" 
d="M355 -8q-135 0 -217.5 88t-82.5 241v58q0 152 83 240.5t217 88.5q135 0 217.5 -88t82.5 -241v-58q0 -159 -92 -249l92 -122h-108l-54 72q-61 -30 -138 -30zM355 82q45 0 81 15l-91 123h108l53 -71q51 64 51 172v58q0 113 -56 176t-146 63q-91 0 -146.5 -62.5
t-55.5 -176.5v-58q0 -113 56 -176t146 -63z" />
    <glyph glyph-name="R" unicode="R" horiz-adv-x="620" 
d="M484 0l-138 275q-12 -1 -36 -1h-136v-274h-94v700h230q131 0 195.5 -55.5t64.5 -157.5q0 -148 -133 -194l153 -293h-106zM310 614h-136v-254h136q162 0 162 127t-162 127z" />
    <glyph glyph-name="S" unicode="S" horiz-adv-x="610" 
d="M305 -8q-123 0 -185 57.5t-70 175.5h100q7 -76 43 -109.5t112 -33.5q77 0 117 30.5t40 79.5q0 35 -22 59t-57.5 37.5t-78.5 24.5t-86 25t-78.5 34t-57.5 57t-22 89q0 84 63.5 137t181.5 53q119 0 178 -53.5t67 -159.5h-100q-8 66 -40.5 94.5t-104.5 28.5
q-73 0 -110 -27.5t-37 -72.5q0 -29 17.5 -50.5t45.5 -33t64 -22.5t74 -19.5t74 -24.5t64 -36.5t45.5 -56.5t17.5 -84q0 -91 -64.5 -145t-190.5 -54z" />
    <glyph glyph-name="T" unicode="T" horiz-adv-x="580" 
d="M20 614v86h540v-86h-223v-614h-94v614h-223z" />
    <glyph glyph-name="U" unicode="U" horiz-adv-x="690" 
d="M345 -8q-125 0 -197.5 76t-72.5 212v420h94v-420q0 -95 47 -146.5t129 -51.5t129 51.5t47 146.5v420h94v-420q0 -135 -73 -211.5t-197 -76.5z" />
    <glyph glyph-name="V" unicode="V" horiz-adv-x="660" 
d="M285 0l-265 700h104l216 -585l200 585h100l-245 -700h-110z" />
    <glyph glyph-name="W" unicode="W" horiz-adv-x="970" 
d="M640 0l-155 586l-145 -586h-120l-190 700h98l151 -589l146 589h120l156 -590l143 590h96l-180 -700h-120z" />
    <glyph glyph-name="X" unicode="X" horiz-adv-x="650" 
d="M509 0l-185 286l-185 -286h-114l239 363l-219 337h113l168 -257l167 257h112l-219 -333l239 -367h-116z" />
    <glyph glyph-name="Y" unicode="Y" horiz-adv-x="650" 
d="M283 0v245l-263 455h108l202 -355l196 355h104l-253 -455v-245h-94z" />
    <glyph glyph-name="Z" unicode="Z" horiz-adv-x="585" 
d="M55 614v86h490v-86l-392 -528h392v-86h-500v86l392 528h-382z" />
    <glyph glyph-name="bracketleft" unicode="[" horiz-adv-x="400" 
d="M110 -200v900h250v-86h-156v-728h156v-86h-250z" />
    <glyph glyph-name="backslash" unicode="\" horiz-adv-x="450" 
d="M335 -200l-320 900h100l320 -900h-100z" />
    <glyph glyph-name="bracketright" unicode="]" horiz-adv-x="400" 
d="M290 700v-900h-250v86h156v728h-156v86h250z" />
    <glyph glyph-name="asciicircum" unicode="^" 
d="M418 400l-128 230l-122 -230h-98l165 300h110l175 -300h-102z" />
    <glyph glyph-name="underscore" unicode="_" 
d="M0 -143v86h590v-86h-590z" />
    <glyph glyph-name="grave" unicode="`" horiz-adv-x="250" 
d="M145 560l-130 150h104l116 -150h-90z" />
    <glyph glyph-name="a" unicode="a" horiz-adv-x="520" 
d="M200 -8q-77 0 -118.5 39t-41.5 109q0 163 220 163h100v37q0 88 -100 88q-92 0 -100 -68h-100q4 67 54.5 107.5t145.5 40.5q92 0 141 -44.5t49 -123.5v-340h-70l-11 82q-57 -90 -169 -90zM210 72q64 0 107 40.5t43 96.5v18h-100q-126 0 -126 -85q0 -32 20 -51t56 -19z" />
    <glyph glyph-name="b" unicode="b" horiz-adv-x="560" 
d="M318 -8q-112 0 -164 79l-9 -71h-70v700h90v-258q53 66 153 66q87 0 142 -63t55 -176v-38q0 -112 -55 -175.5t-142 -63.5zM293 78q61 0 94.5 38.5t33.5 114.5v38q0 75 -34 114t-94 39q-56 0 -91.5 -38.5t-36.5 -107.5v-45q0 -72 35.5 -112.5t92.5 -40.5z" />
    <glyph glyph-name="c" unicode="c" horiz-adv-x="505" 
d="M270 -8q-104 0 -164.5 63t-60.5 176v38q0 112 60.5 175.5t164.5 63.5q84 0 136.5 -42.5t68.5 -110.5h-96q-29 67 -114 67q-58 0 -92 -39t-34 -114v-38q0 -74 34.5 -113.5t91.5 -39.5q89 0 114 77h96q-16 -75 -68 -119t-137 -44z" />
    <glyph glyph-name="d" unicode="d" horiz-adv-x="560" 
d="M242 -8q-88 0 -142.5 62.5t-54.5 176.5v38q0 113 55 176t143 63q98 0 152 -66v258h90v-700h-70l-10 71q-52 -79 -163 -79zM267 78q55 0 90.5 38t37.5 107v53q-2 70 -37 108t-91 38q-61 0 -94.5 -38.5t-33.5 -114.5v-38q0 -75 34 -114t94 -39z" />
    <glyph glyph-name="e" unicode="e" horiz-adv-x="540" 
d="M270 -8q-101 0 -163 64.5t-62 174.5v38q0 108 62.5 173.5t162.5 65.5q101 0 163 -65t62 -174v-48h-356q2 -71 37.5 -109t93.5 -38q56 0 84 19.5t44 61.5h92q-33 -163 -220 -163zM270 426q-55 0 -89 -32.5t-41 -94.5h259q-12 127 -129 127z" />
    <glyph glyph-name="f" unicode="f" horiz-adv-x="335" 
d="M20 418v82h90v53q0 71 38 109t109 38h83v-82h-71q-69 0 -69 -74v-44h120v-82h-120v-418h-90v418h-90z" />
    <glyph glyph-name="g" unicode="g" horiz-adv-x="560" 
d="M243 12q-88 0 -143 61t-55 168v38q0 106 55 167.5t143 61.5q109 0 162 -79l10 71h70v-500q0 -102 -54 -155t-158 -53q-187 0 -203 158h90q8 -40 33 -59t80 -19q65 0 93.5 29.5t28.5 98.5v76q-55 -64 -152 -64zM267 98q57 0 92.5 38.5t35.5 104.5v38q0 66 -35.5 104.5
t-92.5 38.5q-60 0 -94 -37t-34 -106v-38q0 -69 34 -106t94 -37z" />
    <glyph glyph-name="h" unicode="h" horiz-adv-x="575" 
d="M75 0v700h90v-259q51 67 150 67q88 0 139 -55.5t51 -157.5v-295h-90v295q0 127 -115 127q-60 0 -96.5 -33.5t-38.5 -88.5v-300h-90z" />
    <glyph glyph-name="i" unicode="i" horiz-adv-x="256" 
d="M83 0v500h90v-500h-90zM128 576q-26 0 -43 17t-17 43t17 43t43 17t43 -17t17 -43t-17 -43t-43 -17z" />
    <glyph glyph-name="j" unicode="j" horiz-adv-x="256" 
d="M-27 -200v82h33q40 0 58.5 24t18.5 79v515h90v-515q0 -99 -39.5 -142t-127.5 -43h-33zM128 576q-26 0 -43 17t-17 43t17 43t43 17t43 -17t17 -43t-17 -43t-43 -17z" />
    <glyph glyph-name="k" unicode="k" horiz-adv-x="510" 
d="M385 0l-142 215l-78 -96v-119h-90v700h90v-457l202 257h108l-173 -219l193 -281h-110z" />
    <glyph glyph-name="l" unicode="l" horiz-adv-x="285" 
d="M221 0q-71 0 -108.5 38t-37.5 109v553h90v-543q0 -75 69 -75h31v-82h-44z" />
    <glyph glyph-name="m" unicode="m" horiz-adv-x="875" 
d="M75 0v500h70l9 -68q53 76 151 76q106 0 154 -91q26 43 69 67t97 24q81 0 130.5 -56t49.5 -157v-295h-90v295q0 63 -29 95t-81 32q-51 0 -85 -34t-35 -88v-300h-90v295q0 63 -29 95t-81 32q-51 0 -85 -33.5t-35 -88.5v-300h-90z" />
    <glyph glyph-name="n" unicode="n" horiz-adv-x="575" 
d="M75 0v500h70l9 -69q55 77 161 77q88 0 139 -55.5t51 -157.5v-295h-90v295q0 127 -115 127q-60 0 -96.5 -33.5t-38.5 -88.5v-300h-90z" />
    <glyph glyph-name="o" unicode="o" horiz-adv-x="550" 
d="M275 -8q-106 0 -168 64t-62 175v38q0 110 62.5 174.5t167.5 64.5q106 0 168 -64t62 -175v-38q0 -110 -62.5 -174.5t-167.5 -64.5zM275 78q64 0 100 39t36 114v38q0 74 -36.5 113.5t-99.5 39.5q-64 0 -100 -39t-36 -114v-38q0 -74 36.5 -113.5t99.5 -39.5z" />
    <glyph glyph-name="p" unicode="p" horiz-adv-x="560" 
d="M317 -8q-99 0 -152 65v-257h-90v700h70l9 -72q53 80 164 80q87 0 142 -63t55 -176v-38q0 -112 -55.5 -175.5t-142.5 -63.5zM293 78q128 0 128 153v38q0 76 -33.5 114.5t-94.5 38.5q-56 0 -91.5 -38.5t-36.5 -107.5v-45q0 -72 35.5 -112.5t92.5 -40.5z" />
    <glyph glyph-name="q" unicode="q" horiz-adv-x="560" 
d="M243 -8q-89 0 -143.5 62.5t-54.5 176.5v38q0 113 55 176t143 63q109 0 162 -80l10 72h70v-700h-90v257q-54 -65 -152 -65zM267 78q57 0 92.5 40.5t35.5 112.5v45q-2 70 -37 108t-91 38q-61 0 -94.5 -38.5t-33.5 -114.5v-38q0 -75 34 -114t94 -39z" />
    <glyph glyph-name="r" unicode="r" horiz-adv-x="380" 
d="M75 0v500h70l9 -68q53 76 156 76h50v-86h-50q-68 0 -105.5 -33.5t-39.5 -88.5v-300h-90z" />
    <glyph glyph-name="s" unicode="s" horiz-adv-x="490" 
d="M245 -8q-184 0 -200 163h94q8 -46 30.5 -64.5t75.5 -18.5q59 0 82.5 16.5t23.5 51.5q0 33 -30.5 51t-74 26.5t-87 20t-74 43t-30.5 84.5q0 64 48.5 103.5t141.5 39.5q87 0 134.5 -40.5t55.5 -112.5h-94q-8 38 -29 55.5t-67 17.5q-96 0 -96 -63q0 -29 30.5 -44t74 -23
t87 -20.5t74 -46.5t30.5 -91q0 -68 -50 -108t-150 -40z" />
    <glyph glyph-name="t" unicode="t" horiz-adv-x="360" 
d="M15 418v82h90v140h90v-140h130v-82h-130v-261q0 -75 70 -75h70v-82h-83q-70 0 -108.5 38t-38.5 109v271h-90z" />
    <glyph glyph-name="u" unicode="u" horiz-adv-x="565" 
d="M255 -8q-84 0 -134.5 56t-50.5 157v295h90v-295q0 -63 29 -95t81 -32q57 0 92.5 33.5t37.5 87.5v301h90v-500h-70l-9 69q-55 -77 -156 -77z" />
    <glyph glyph-name="v" unicode="v" horiz-adv-x="510" 
d="M205 0l-190 500h98l147 -400l139 400h96l-180 -500h-110z" />
    <glyph glyph-name="w" unicode="w" horiz-adv-x="770" 
d="M500 0l-116 398l-104 -398h-110l-145 500h94l108 -389l102 389h110l114 -394l102 394h90l-135 -500h-110z" />
    <glyph glyph-name="x" unicode="x" horiz-adv-x="500" 
d="M381 0l-131 191l-133 -191h-102l179 256l-169 244h102l123 -181l125 181h100l-169 -245l179 -255h-104z" />
    <glyph glyph-name="y" unicode="y" horiz-adv-x="520" 
d="M140 -200l77 200l-202 500h98l152 -387l144 387h96l-269 -700h-96z" />
    <glyph glyph-name="z" unicode="z" horiz-adv-x="455" 
d="M45 418v82h380v-82l-286 -336h286v-82h-390v82l286 336h-276z" />
    <glyph glyph-name="braceleft" unicode="{" horiz-adv-x="400" 
d="M370 700v-86h-41q-59 0 -87 -28.5t-28 -91.5v-103q0 -26 -2.5 -44t-9.5 -37.5t-22.5 -34.5t-38.5 -26q31 -15 47.5 -38t21 -45.5t4.5 -56.5v-103q0 -63 28 -91.5t87 -28.5h41v-86h-49q-201 0 -201 201v104q0 95 -80 104v82q80 9 80 103v105q0 201 201 201h49z" />
    <glyph glyph-name="bar" unicode="|" horiz-adv-x="300" 
d="M103 -200v900h94v-900h-94z" />
    <glyph glyph-name="braceright" unicode="}" horiz-adv-x="400" 
d="M30 -200v86h41q59 0 87 28.5t28 91.5v103q0 26 2.5 44t9.5 37.5t22.5 34.5t38.5 26q-31 15 -47.5 38t-21 45.5t-4.5 56.5v103q0 63 -28 91.5t-87 28.5h-41v86h49q201 0 201 -201v-104q0 -95 80 -104v-82q-80 -9 -80 -103v-105q0 -201 -201 -201h-49z" />
    <glyph glyph-name="asciitilde" unicode="~" 
d="M401 265q-36 0 -69 15.5t-53 34.5t-44.5 34.5t-45.5 15.5q-26 0 -41 -16t-15 -44h-88q0 66 41 108t103 42q36 0 69 -15.5t53 -34.5t44.5 -34.5t45.5 -15.5q27 0 41.5 16.5t14.5 43.5h88q0 -66 -41 -108t-103 -42z" />
    <glyph glyph-name="uni00A0" unicode="&#xa0;" horiz-adv-x="250" 
 />
    <glyph glyph-name="exclamdown" unicode="&#xa1;" horiz-adv-x="300" 
d="M150 508q30 0 50 -20t20 -50t-20 -50t-50 -20t-50 20t-20 50t20 50t50 20zM197 300v-500h-94v500h94z" />
    <glyph glyph-name="cent" unicode="&#xa2;" horiz-adv-x="505" 
d="M228 -100v95q-86 12 -134.5 73.5t-48.5 162.5v38q0 100 48.5 161.5t134.5 74.5v95h84v-95q66 -11 107.5 -51.5t55.5 -98.5h-96q-29 67 -114 67q-58 0 -92 -39t-34 -114v-38q0 -74 34.5 -113.5t91.5 -39.5q89 0 114 77h96q-14 -65 -55.5 -107.5t-107.5 -52.5v-95h-84z" />
    <glyph glyph-name="sterling" unicode="&#xa3;" horiz-adv-x="580" 
d="M45 293v74h90v138q0 88 58 145.5t146 57.5q93 0 147.5 -57t58.5 -156h-98q-7 123 -108 123q-50 0 -80 -30.5t-30 -82.5v-138h181v-74h-181v-31q0 -71 -13 -110.5t-46 -65.5h375v-86h-500v86q33 22 50.5 40t28.5 51.5t11 84.5v31h-90z" />
    <glyph glyph-name="currency" unicode="&#xa4;" 
d="M487 105l-82 82q-49 -32 -110 -32q-63 0 -112 34l-84 -84l-59 59l84 84q-34 49 -34 112q0 61 32 110l-82 82l63 63l82 -83q50 33 110 33q59 0 111 -34l84 84l60 -60l-84 -84q34 -52 34 -111t-32 -110l82 -82zM295 242q46 0 79 34.5t33 83.5t-33 83.5t-79 34.5t-79 -34.5
t-33 -83.5t33 -83.5t79 -34.5z" />
    <glyph glyph-name="yen" unicode="&#xa5;" horiz-adv-x="650" 
d="M85 263v74h142l-207 363h108l203 -363l195 363h104l-200 -363h145v-74h-198v-71h198v-74h-198v-118h-94v118h-198v74h198v71h-198z" />
    <glyph glyph-name="brokenbar" unicode="&#xa6;" horiz-adv-x="300" 
d="M103 -200v370h94v-370h-94zM103 330v370h94v-370h-94z" />
    <glyph glyph-name="section" unicode="&#xa7;" horiz-adv-x="480" 
d="M240 708q77 0 125 -42.5t56 -108.5h-99q-4 30 -25 47t-57 17q-83 0 -83 -68q0 -33 29 -58.5t70.5 -45t83.5 -43.5t71 -66t29 -99q0 -90 -92 -152q83 -53 83 -138q0 -70 -51 -114.5t-140 -44.5q-81 0 -131.5 45t-58.5 116h100q3 -33 27 -53.5t63 -20.5q44 0 68.5 20
t24.5 52q0 27 -21.5 49t-54.5 37t-70.5 35t-70.5 41.5t-54.5 59.5t-21.5 86q0 93 98 155q-79 54 -79 139q0 69 48 112t133 43zM137 260q0 -23 9.5 -41.5t30.5 -34.5t38 -25t49 -25q41 25 59.5 48.5t18.5 57.5q0 23 -9 41.5t-29.5 35t-37 26t-47.5 25.5q-43 -25 -62.5 -49.5
t-19.5 -58.5z" />
    <glyph glyph-name="dieresis" unicode="&#xa8;" horiz-adv-x="340" 
d="M75 575q-25 0 -42.5 17.5t-17.5 42.5t17.5 42.5t42.5 17.5t42.5 -17.5t17.5 -42.5t-17.5 -42.5t-42.5 -17.5zM265 575q-25 0 -42.5 17.5t-17.5 42.5t17.5 42.5t42.5 17.5t42.5 -17.5t17.5 -42.5t-17.5 -42.5t-42.5 -17.5z" />
    <glyph glyph-name="copyright" unicode="&#xa9;" horiz-adv-x="850" 
d="M425 -8q-151 0 -255.5 104t-104.5 254q0 149 105 253.5t255 104.5q151 0 255.5 -104t104.5 -254q0 -148 -105.5 -253t-254.5 -105zM425 68q118 0 198.5 81.5t80.5 200.5t-81 200.5t-198 81.5t-198 -81.5t-81 -200.5t81 -200.5t198 -81.5zM425 142q-84 0 -132.5 51
t-48.5 142v30q0 90 49 141.5t132 51.5q72 0 118 -35.5t54 -85.5h-85q-22 47 -87 47q-47 0 -73.5 -30t-26.5 -89v-30q0 -57 27 -88t73 -31q73 0 91 57h81q-8 -55 -54 -93t-118 -38z" />
    <glyph glyph-name="ordfeminine" unicode="&#xaa;" horiz-adv-x="350" 
d="M138 372q-54 0 -83.5 26.5t-29.5 71.5q0 52 36 79t120 27h57v14q0 30 -13.5 43t-44.5 13q-50 0 -59 -37h-78q4 45 38.5 72t98.5 27q135 0 135 -118v-210h-61l-8 48q-34 -56 -108 -56zM152 434q39 0 62.5 22.5t23.5 58.5v9h-58q-74 0 -74 -46q0 -44 46 -44z" />
    <glyph glyph-name="guillemotleft" unicode="&#xab;" horiz-adv-x="505" 
d="M235 258l122 202h98l-120 -198l120 -202h-101zM30 258l122 202h98l-120 -198l120 -202h-101z" />
    <glyph glyph-name="logicalnot" unicode="&#xac;" 
d="M70 316v86h450v-270h-90v184h-360z" />
    <glyph glyph-name="uni00AD" unicode="&#xad;" horiz-adv-x="400" 
d="M45 217v86h310v-86h-310z" />
    <glyph glyph-name="registered" unicode="&#xae;" horiz-adv-x="650" 
d="M325 142q-118 0 -201.5 83t-83.5 200t83.5 200t201.5 83t201.5 -83t83.5 -200t-83.5 -200t-201.5 -83zM325 205q90 0 153.5 64.5t63.5 155.5t-63.5 155.5t-153.5 64.5q-89 0 -153 -64.5t-64 -155.5t64 -155.5t153 -64.5zM377 275l-45 99h-47v-99h-66v300h111
q121 0 121 -101q0 -72 -60 -92l54 -107h-68zM330 515h-45v-82h45q52 0 52 41q0 21 -11.5 31t-40.5 10z" />
    <glyph glyph-name="macron" unicode="&#xaf;" horiz-adv-x="300" 
d="M10 598v74h280v-74h-280z" />
    <glyph glyph-name="degree" unicode="&#xb0;" horiz-adv-x="360" 
d="M180 386q-69 0 -117 47t-48 114t48 114t117 47t117 -47t48 -114t-48 -114t-117 -47zM180 461q36 0 61 25t25 61t-25 61t-61 25t-61 -25t-25 -61t25 -61t61 -25z" />
    <glyph glyph-name="plusminus" unicode="&#xb1;" 
d="M70 369v86h180v189h90v-189h180v-86h-180v-138h-90v138h-180zM70 75v86h450v-86h-450z" />
    <glyph glyph-name="uni00B2" unicode="&#xb2;" horiz-adv-x="355" 
d="M21 380v72l144 134q48 46 62.5 69t14.5 49q0 59 -69 59t-69 -59h-83q0 59 41 96.5t111 37.5q69 0 110.5 -37.5t41.5 -96.5q0 -42 -24 -79.5t-83 -91.5l-89 -81h196v-72h-304z" />
    <glyph glyph-name="uni00B3" unicode="&#xb3;" horiz-adv-x="370" 
d="M180 372q-76 0 -116.5 38t-43.5 110h83q6 -73 77 -73q37 0 57 17.5t20 46.5q0 28 -20.5 46t-56.5 18h-58v70h58q67 0 67 59t-67 59q-61 0 -67 -59h-83q3 62 42 98t108 36t109.5 -35.5t40.5 -89.5q0 -71 -57 -99q67 -35 67 -107q0 -61 -42 -98t-118 -37z" />
    <glyph glyph-name="acute" unicode="&#xb4;" horiz-adv-x="250" 
d="M15 560l116 150h104l-130 -150h-90z" />
    <glyph glyph-name="mu" unicode="&#xb5;" horiz-adv-x="570" 
d="M260 -8q-54 0 -95 29v-221h-90v700h90v-295q0 -63 29 -95t81 -32q58 0 94 35.5t36 91.5v295h90v-500h-70l-9 69q-55 -77 -156 -77z" />
    <glyph glyph-name="paragraph" unicode="&#xb6;" horiz-adv-x="660" 
d="M449 -200v814h-138v-814h-93v464q-77 15 -127.5 76t-50.5 140q0 91 64.5 155.5t155.5 64.5h380v-86h-97v-814h-94z" />
    <glyph glyph-name="periodcentered" unicode="&#xb7;" horiz-adv-x="250" 
d="M125 190q-30 0 -50 20t-20 50t20 50t50 20t50 -20t20 -50t-20 -50t-50 -20z" />
    <glyph glyph-name="cedilla" unicode="&#xb8;" horiz-adv-x="190" 
d="M43 -86l25 97h60l-12 -46q64 -13 64 -75q0 -41 -25.5 -65.5t-69.5 -24.5h-75v66h65q27 0 27 24t-27 24h-32z" />
    <glyph glyph-name="uni00B9" unicode="&#xb9;" horiz-adv-x="260" 
d="M15 671v87l117 72h78v-450h-78v364z" />
    <glyph glyph-name="ordmasculine" unicode="&#xba;" horiz-adv-x="360" 
d="M180 372q-71 0 -113 41.5t-42 111.5v30q0 70 42 111.5t113 41.5t113 -41.5t42 -111.5v-30q0 -70 -42 -111.5t-113 -41.5zM180 446q36 0 55.5 20.5t19.5 58.5v30q0 38 -19.5 58.5t-55.5 20.5t-55.5 -20.5t-19.5 -58.5v-30q0 -38 19.5 -58.5t55.5 -20.5z" />
    <glyph glyph-name="guillemotright" unicode="&#xbb;" horiz-adv-x="505" 
d="M475 262l-122 -202h-98l120 198l-120 202h101zM270 262l-122 -202h-98l120 198l-120 202h101z" />
    <glyph glyph-name="onequarter" unicode="&#xbc;" horiz-adv-x="850" 
d="M175 0l404 700h96l-404 -700h-96zM40 548v86l108 66h77v-400h-77v315zM490 80v69l166 251h107v-251h47v-69h-47v-80h-76v80h-197zM572 149h115v174z" />
    <glyph glyph-name="onehalf" unicode="&#xbd;" horiz-adv-x="880" 
d="M175 0l404 700h96l-404 -700h-96zM40 548v86l108 66h77v-400h-77v315zM550 0v70l133 110q48 39 62 60t14 45q0 50 -64 50t-64 -51h-81q0 59 36.5 91.5t108.5 32.5t108.5 -32.5t36.5 -90.5q0 -40 -23 -75t-80 -80l-75 -60h178v-70h-290z" />
    <glyph glyph-name="threequarters" unicode="&#xbe;" horiz-adv-x="900" 
d="M225 0l404 700h96l-404 -700h-96zM540 80v69l166 251h107v-251h47v-69h-47v-80h-76v80h-197zM622 149h115v174zM195 292q-74 0 -113 35t-42 98h81q6 -60 74 -60q74 0 74 53t-74 53h-53v68h53q64 0 64 48t-64 48q-32 0 -46.5 -12t-17.5 -39h-81q7 124 145 124
q69 0 107 -32t38 -83q0 -55 -51 -83q61 -30 61 -98q0 -55 -39.5 -87.5t-115.5 -32.5z" />
    <glyph glyph-name="questiondown" unicode="&#xbf;" horiz-adv-x="500" 
d="M302 296q0 -59 -17.5 -100.5t-42 -64.5t-49.5 -42t-42.5 -46t-17.5 -63q0 -44 30.5 -71t86.5 -27q119 0 127 113h98q-4 -92 -62.5 -147.5t-157.5 -55.5q-104 0 -162 51t-58 132q0 50 18 86.5t43 58.5t50.5 43.5t43.5 54.5t18 78h94zM255 508q30 0 50 -20t20 -50t-20 -50
t-50 -20t-50 20t-20 50t20 50t50 20z" />
    <glyph glyph-name="Agrave" unicode="&#xc0;" horiz-adv-x="650" 
d="M533 0l-68 192h-284l-68 -192h-98l255 700h110l255 -700h-102zM272 446l-60 -168h222l-59 168l-51 149zM278 760l-128 150h108l112 -150h-92z" />
    <glyph glyph-name="Aacute" unicode="&#xc1;" horiz-adv-x="650" 
d="M533 0l-68 192h-284l-68 -192h-98l255 700h110l255 -700h-102zM272 446l-60 -168h222l-59 168l-51 149zM279 760l112 150h108l-128 -150h-92z" />
    <glyph glyph-name="Acircumflex" unicode="&#xc2;" horiz-adv-x="650" 
d="M533 0l-68 192h-284l-68 -192h-98l255 700h110l255 -700h-102zM272 446l-60 -168h222l-59 168l-51 149zM398 760l-73 86l-73 -86h-92l112 150h106l112 -150h-92z" />
    <glyph glyph-name="Atilde" unicode="&#xc3;" horiz-adv-x="650" 
d="M533 0l-68 192h-284l-68 -192h-98l255 700h110l255 -700h-102zM272 446l-60 -168h222l-59 168l-51 149zM395 765q-32 0 -58.5 16.5t-46 33.5t-35.5 17q-37 0 -37 -52h-63q0 125 100 125q32 0 58 -16.5t46 -32.5t36 -16q37 0 37 50h63q0 -125 -100 -125z" />
    <glyph glyph-name="Adieresis" unicode="&#xc4;" horiz-adv-x="650" 
d="M533 0l-68 192h-284l-68 -192h-98l255 700h110l255 -700h-102zM272 446l-60 -168h222l-59 168l-51 149zM220 775q-26 0 -43 17.5t-17 42.5t17 42.5t43 17.5t43 -17.5t17 -42.5t-17 -42.5t-43 -17.5zM430 775q-26 0 -43 17.5t-17 42.5t17 42.5t43 17.5t43 -17.5t17 -42.5
t-17 -42.5t-43 -17.5z" />
    <glyph glyph-name="Aring" unicode="&#xc5;" horiz-adv-x="650" 
d="M533 0l-68 192h-284l-68 -192h-98l255 700h110l255 -700h-102zM272 446l-60 -168h222l-59 168l-51 149zM325 730q-48 0 -79 30t-31 75t31 75t79 30t79 -30t31 -75t-31 -75t-79 -30zM325 790q19 0 31.5 13t12.5 32t-12.5 32t-31.5 13t-31.5 -13t-12.5 -32t12.5 -32
t31.5 -13z" />
    <glyph glyph-name="AE" unicode="&#xc6;" horiz-adv-x="930" 
d="M10 0l390 700h485v-86h-341v-211h281v-86h-281v-231h341v-86h-435v192h-231l-105 -192h-104zM266 278h184v334z" />
    <glyph glyph-name="Ccedilla" unicode="&#xc7;" horiz-adv-x="670" 
d="M298 -86l19 80q-119 11 -190.5 97.5t-71.5 229.5v58q0 152 82 240.5t213 88.5q111 0 185 -62t90 -151h-102q-16 52 -61.5 87.5t-111.5 35.5q-87 0 -142 -63t-55 -176v-58q0 -112 55 -175.5t142 -63.5q68 0 112.5 39t60.5 104h102q-15 -95 -81 -159.5t-167 -72.5l-7 -28
q65 -13 65 -75q0 -41 -25.5 -65.5t-69.5 -24.5h-75v66h65q27 0 27 24q0 22 -22 24h-37z" />
    <glyph glyph-name="Egrave" unicode="&#xc8;" horiz-adv-x="560" 
d="M80 0v700h435v-86h-341v-211h281v-86h-281v-231h341v-86h-435zM251 760l-128 150h108l112 -150h-92z" />
    <glyph glyph-name="Eacute" unicode="&#xc9;" horiz-adv-x="560" 
d="M80 0v700h435v-86h-341v-211h281v-86h-281v-231h341v-86h-435zM251 760l112 150h108l-128 -150h-92z" />
    <glyph glyph-name="Ecircumflex" unicode="&#xca;" horiz-adv-x="560" 
d="M80 0v700h435v-86h-341v-211h281v-86h-281v-231h341v-86h-435zM370 760l-73 86l-73 -86h-92l112 150h106l112 -150h-92z" />
    <glyph glyph-name="Edieresis" unicode="&#xcb;" horiz-adv-x="560" 
d="M80 0v700h435v-86h-341v-211h281v-86h-281v-231h341v-86h-435zM192 775q-26 0 -43 17.5t-17 42.5t17 42.5t43 17.5t43 -17.5t17 -42.5t-17 -42.5t-43 -17.5zM402 775q-26 0 -43 17.5t-17 42.5t17 42.5t43 17.5t43 -17.5t17 -42.5t-17 -42.5t-43 -17.5z" />
    <glyph glyph-name="Igrave" unicode="&#xcc;" horiz-adv-x="270" 
d="M88 0v700h94v-700h-94zM89 760l-128 150h108l112 -150h-92z" />
    <glyph glyph-name="Iacute" unicode="&#xcd;" horiz-adv-x="270" 
d="M88 0v700h94v-700h-94zM89 760l112 150h108l-128 -150h-92z" />
    <glyph glyph-name="Icircumflex" unicode="&#xce;" horiz-adv-x="270" 
d="M88 0v700h94v-700h-94zM208 760l-73 86l-73 -86h-92l112 150h106l112 -150h-92z" />
    <glyph glyph-name="Idieresis" unicode="&#xcf;" horiz-adv-x="270" 
d="M88 0v700h94v-700h-94zM30 775q-26 0 -43 17.5t-17 42.5t17 42.5t43 17.5t43 -17.5t17 -42.5t-17 -42.5t-43 -17.5zM240 775q-26 0 -43 17.5t-17 42.5t17 42.5t43 17.5t43 -17.5t17 -42.5t-17 -42.5t-43 -17.5z" />
    <glyph glyph-name="Eth" unicode="&#xd0;" horiz-adv-x="705" 
d="M15 312v76h90v312h220q156 0 240.5 -83.5t84.5 -236.5v-60q0 -151 -85.5 -235.5t-239.5 -84.5h-220v312h-90zM325 614h-126v-226h176v-76h-176v-226h126q227 0 227 234v60q0 115 -58.5 174.5t-168.5 59.5z" />
    <glyph glyph-name="Ntilde" unicode="&#xd1;" horiz-adv-x="710" 
d="M496 0l-271 490l-51 102v-592h-94v700h134l271 -490l51 -102v592h94v-700h-134zM425 765q-32 0 -58.5 16.5t-46 33.5t-35.5 17q-37 0 -37 -52h-63q0 125 100 125q32 0 58 -16.5t46 -32.5t36 -16q37 0 37 50h63q0 -125 -100 -125z" />
    <glyph glyph-name="Ograve" unicode="&#xd2;" horiz-adv-x="710" 
d="M355 -8q-135 0 -217.5 88t-82.5 241v58q0 152 83 240.5t217 88.5q135 0 217.5 -88t82.5 -241v-58q0 -152 -83 -240.5t-217 -88.5zM355 82q91 0 146.5 62.5t55.5 176.5v58q0 113 -56 176t-146 63q-91 0 -146.5 -62.5t-55.5 -176.5v-58q0 -113 56 -176t146 -63zM309 760
l-128 150h108l112 -150h-92z" />
    <glyph glyph-name="Oacute" unicode="&#xd3;" horiz-adv-x="710" 
d="M355 -8q-135 0 -217.5 88t-82.5 241v58q0 152 83 240.5t217 88.5q135 0 217.5 -88t82.5 -241v-58q0 -152 -83 -240.5t-217 -88.5zM355 82q91 0 146.5 62.5t55.5 176.5v58q0 113 -56 176t-146 63q-91 0 -146.5 -62.5t-55.5 -176.5v-58q0 -113 56 -176t146 -63zM309 760
l112 150h108l-128 -150h-92z" />
    <glyph glyph-name="Ocircumflex" unicode="&#xd4;" horiz-adv-x="710" 
d="M355 -8q-135 0 -217.5 88t-82.5 241v58q0 152 83 240.5t217 88.5q135 0 217.5 -88t82.5 -241v-58q0 -152 -83 -240.5t-217 -88.5zM355 82q91 0 146.5 62.5t55.5 176.5v58q0 113 -56 176t-146 63q-91 0 -146.5 -62.5t-55.5 -176.5v-58q0 -113 56 -176t146 -63zM428 760
l-73 86l-73 -86h-92l112 150h106l112 -150h-92z" />
    <glyph glyph-name="Otilde" unicode="&#xd5;" horiz-adv-x="710" 
d="M355 -8q-135 0 -217.5 88t-82.5 241v58q0 152 83 240.5t217 88.5q135 0 217.5 -88t82.5 -241v-58q0 -152 -83 -240.5t-217 -88.5zM355 82q91 0 146.5 62.5t55.5 176.5v58q0 113 -56 176t-146 63q-91 0 -146.5 -62.5t-55.5 -176.5v-58q0 -113 56 -176t146 -63zM425 765
q-32 0 -58.5 16.5t-46 33.5t-35.5 17q-37 0 -37 -52h-63q0 125 100 125q32 0 58 -16.5t46 -32.5t36 -16q37 0 37 50h63q0 -125 -100 -125z" />
    <glyph glyph-name="Odieresis" unicode="&#xd6;" horiz-adv-x="710" 
d="M355 -8q-135 0 -217.5 88t-82.5 241v58q0 152 83 240.5t217 88.5q135 0 217.5 -88t82.5 -241v-58q0 -152 -83 -240.5t-217 -88.5zM355 82q91 0 146.5 62.5t55.5 176.5v58q0 113 -56 176t-146 63q-91 0 -146.5 -62.5t-55.5 -176.5v-58q0 -113 56 -176t146 -63zM250 775
q-26 0 -43 17.5t-17 42.5t17 42.5t43 17.5t43 -17.5t17 -42.5t-17 -42.5t-43 -17.5zM460 775q-26 0 -43 17.5t-17 42.5t17 42.5t43 17.5t43 -17.5t17 -42.5t-17 -42.5t-43 -17.5z" />
    <glyph glyph-name="multiply" unicode="&#xd7;" 
d="M156 159l-61 62l138 138l-138 139l61 61l139 -138l138 138l62 -61l-139 -139l139 -138l-62 -62l-138 139z" />
    <glyph glyph-name="Oslash" unicode="&#xd8;" horiz-adv-x="710" 
d="M107 -8l-52 42l60 73q-60 85 -60 214v58q0 152 83 240.5t217 88.5q117 0 194 -66l54 66l52 -42l-60 -74q60 -85 60 -213v-58q0 -152 -83 -240.5t-217 -88.5q-118 0 -195 65zM153 321q0 -76 27 -133l308 379q-52 51 -133 51q-91 0 -146.5 -62.5t-55.5 -176.5v-58zM355 82
q90 0 145.5 62.5t55.5 176.5v58q0 75 -27 132l-308 -379q53 -50 134 -50z" />
    <glyph glyph-name="Ugrave" unicode="&#xd9;" horiz-adv-x="690" 
d="M345 -8q-125 0 -197.5 76t-72.5 212v420h94v-420q0 -95 47 -146.5t129 -51.5t129 51.5t47 146.5v420h94v-420q0 -135 -73 -211.5t-197 -76.5zM299 760l-128 150h108l112 -150h-92z" />
    <glyph glyph-name="Uacute" unicode="&#xda;" horiz-adv-x="690" 
d="M345 -8q-125 0 -197.5 76t-72.5 212v420h94v-420q0 -95 47 -146.5t129 -51.5t129 51.5t47 146.5v420h94v-420q0 -135 -73 -211.5t-197 -76.5zM299 760l112 150h108l-128 -150h-92z" />
    <glyph glyph-name="Ucircumflex" unicode="&#xdb;" horiz-adv-x="690" 
d="M345 -8q-125 0 -197.5 76t-72.5 212v420h94v-420q0 -95 47 -146.5t129 -51.5t129 51.5t47 146.5v420h94v-420q0 -135 -73 -211.5t-197 -76.5zM418 760l-73 86l-73 -86h-92l112 150h106l112 -150h-92z" />
    <glyph glyph-name="Udieresis" unicode="&#xdc;" horiz-adv-x="690" 
d="M345 -8q-125 0 -197.5 76t-72.5 212v420h94v-420q0 -95 47 -146.5t129 -51.5t129 51.5t47 146.5v420h94v-420q0 -135 -73 -211.5t-197 -76.5zM240 775q-26 0 -43 17.5t-17 42.5t17 42.5t43 17.5t43 -17.5t17 -42.5t-17 -42.5t-43 -17.5zM450 775q-26 0 -43 17.5t-17 42.5
t17 42.5t43 17.5t43 -17.5t17 -42.5t-17 -42.5t-43 -17.5z" />
    <glyph glyph-name="Yacute" unicode="&#xdd;" horiz-adv-x="650" 
d="M283 0v245l-263 455h108l202 -355l196 355h104l-253 -455v-245h-94zM281 760l112 150h108l-128 -150h-92z" />
    <glyph glyph-name="Thorn" unicode="&#xde;" horiz-adv-x="600" 
d="M80 0v700h94v-116h136q260 0 260 -224q0 -106 -65.5 -165t-194.5 -59h-136v-136h-94zM310 498h-136v-276h136q85 0 124 34.5t39 103.5q0 70 -38.5 104t-124.5 34z" />
    <glyph glyph-name="germandbls" unicode="&#xdf;" horiz-adv-x="560" 
d="M75 0v490q0 100 58.5 159t156.5 59q92 0 148.5 -54t56.5 -137q0 -88 -80 -141q100 -42 100 -153v-38q0 -87 -53.5 -136t-156.5 -49h-60v82h60q55 0 85.5 28.5t30.5 75.5v37q0 47 -30.5 75.5t-85.5 28.5h-60v84h45q51 0 81 29t30 77q0 47 -30 76t-81 29q-57 0 -91 -35
t-34 -97v-490h-90z" />
    <glyph glyph-name="agrave" unicode="&#xe0;" horiz-adv-x="520" 
d="M200 -8q-77 0 -118.5 39t-41.5 109q0 163 220 163h100v37q0 88 -100 88q-92 0 -100 -68h-100q4 67 54.5 107.5t145.5 40.5q92 0 141 -44.5t49 -123.5v-340h-70l-11 82q-57 -90 -169 -90zM210 72q64 0 107 40.5t43 96.5v18h-100q-126 0 -126 -85q0 -32 20 -51t56 -19z
M210 560l-130 150h104l116 -150h-90z" />
    <glyph glyph-name="aacute" unicode="&#xe1;" horiz-adv-x="520" 
d="M200 -8q-77 0 -118.5 39t-41.5 109q0 163 220 163h100v37q0 88 -100 88q-92 0 -100 -68h-100q4 67 54.5 107.5t145.5 40.5q92 0 141 -44.5t49 -123.5v-340h-70l-11 82q-57 -90 -169 -90zM210 72q64 0 107 40.5t43 96.5v18h-100q-126 0 -126 -85q0 -32 20 -51t56 -19z
M210 560l116 150h104l-130 -150h-90z" />
    <glyph glyph-name="acircumflex" unicode="&#xe2;" horiz-adv-x="520" 
d="M200 -8q-77 0 -118.5 39t-41.5 109q0 163 220 163h100v37q0 88 -100 88q-92 0 -100 -68h-100q4 67 54.5 107.5t145.5 40.5q92 0 141 -44.5t49 -123.5v-340h-70l-11 82q-57 -90 -169 -90zM210 72q64 0 107 40.5t43 96.5v18h-100q-126 0 -126 -85q0 -32 20 -51t56 -19z
M332 560l-77 87l-77 -87h-88l116 150h98l116 -150h-88z" />
    <glyph glyph-name="atilde" unicode="&#xe3;" horiz-adv-x="520" 
d="M200 -8q-77 0 -118.5 39t-41.5 109q0 163 220 163h100v37q0 88 -100 88q-92 0 -100 -68h-100q4 67 54.5 107.5t145.5 40.5q92 0 141 -44.5t49 -123.5v-340h-70l-11 82q-57 -90 -169 -90zM210 72q64 0 107 40.5t43 96.5v18h-100q-126 0 -126 -85q0 -32 20 -51t56 -19z
M320 565q-30 0 -55 16.5t-43 33t-32 16.5q-32 0 -32 -51h-63q0 62 25.5 93.5t69.5 31.5q30 0 54.5 -16.5t43 -33t32.5 -16.5q32 0 32 51h63q0 -62 -25.5 -93.5t-69.5 -31.5z" />
    <glyph glyph-name="adieresis" unicode="&#xe4;" horiz-adv-x="520" 
d="M200 -8q-77 0 -118.5 39t-41.5 109q0 163 220 163h100v37q0 88 -100 88q-92 0 -100 -68h-100q4 67 54.5 107.5t145.5 40.5q92 0 141 -44.5t49 -123.5v-340h-70l-11 82q-57 -90 -169 -90zM210 72q64 0 107 40.5t43 96.5v18h-100q-126 0 -126 -85q0 -32 20 -51t56 -19z
M160 575q-26 0 -43 17.5t-17 42.5t17 42.5t43 17.5t43 -17.5t17 -42.5t-17 -42.5t-43 -17.5zM350 575q-26 0 -43 17.5t-17 42.5t17 42.5t43 17.5t43 -17.5t17 -42.5t-17 -42.5t-43 -17.5z" />
    <glyph glyph-name="aring" unicode="&#xe5;" horiz-adv-x="520" 
d="M200 -8q-77 0 -118.5 39t-41.5 109q0 163 220 163h100v37q0 88 -100 88q-92 0 -100 -68h-100q4 67 54.5 107.5t145.5 40.5q92 0 141 -44.5t49 -123.5v-340h-70l-11 82q-57 -90 -169 -90zM210 72q64 0 107 40.5t43 96.5v18h-100q-126 0 -126 -85q0 -32 20 -51t56 -19z
M255 530q-48 0 -79 30t-31 75t31 75t79 30t79 -30t31 -75t-31 -75t-79 -30zM255 586q21 0 34.5 13.5t13.5 35.5t-13.5 35.5t-34.5 13.5t-34.5 -13.5t-13.5 -35.5t13.5 -35.5t34.5 -13.5z" />
    <glyph glyph-name="ae" unicode="&#xe6;" horiz-adv-x="855" 
d="M212 -8q-85 0 -128.5 39t-43.5 109q0 158 222 158h102v42q0 88 -102 88q-94 0 -102 -68h-100q4 67 55 107.5t147 40.5q116 0 158 -80q60 80 165 80q101 0 163 -65t62 -174v-47h-356q2 -72 37.5 -110t93.5 -38q56 0 84 18.5t44 57.5h92q-34 -158 -220 -158
q-61 0 -108.5 27.5t-74.5 78.5q-28 -50 -78.5 -78t-111.5 -28zM212 72q65 0 108.5 40t43.5 98v12h-102q-70 0 -99 -20t-29 -60q0 -32 20.5 -51t57.5 -19zM585 426q-55 0 -89 -32.5t-41 -95.5h259q-12 128 -129 128z" />
    <glyph glyph-name="ccedilla" unicode="&#xe7;" horiz-adv-x="505" 
d="M218 -86l20 80q-90 9 -141.5 71t-51.5 166v38q0 112 60.5 175.5t164.5 63.5q84 0 136.5 -42.5t68.5 -110.5h-96q-29 67 -114 67q-58 0 -92 -39t-34 -114v-38q0 -74 34.5 -113.5t91.5 -39.5q89 0 114 77h96q-15 -69 -59.5 -111.5t-117.5 -49.5l-7 -29q64 -13 64 -75
q0 -41 -25.5 -65.5t-69.5 -24.5h-75v66h65q27 0 27 24t-27 24h-32z" />
    <glyph glyph-name="egrave" unicode="&#xe8;" horiz-adv-x="540" 
d="M270 -8q-101 0 -163 64.5t-62 174.5v38q0 108 62.5 173.5t162.5 65.5q101 0 163 -65t62 -174v-48h-356q2 -71 37.5 -109t93.5 -38q56 0 84 19.5t44 61.5h92q-33 -163 -220 -163zM270 426q-55 0 -89 -32.5t-41 -94.5h259q-12 127 -129 127zM225 560l-130 150h104l116 -150
h-90z" />
    <glyph glyph-name="eacute" unicode="&#xe9;" horiz-adv-x="540" 
d="M270 -8q-101 0 -163 64.5t-62 174.5v38q0 108 62.5 173.5t162.5 65.5q101 0 163 -65t62 -174v-48h-356q2 -71 37.5 -109t93.5 -38q56 0 84 19.5t44 61.5h92q-33 -163 -220 -163zM270 426q-55 0 -89 -32.5t-41 -94.5h259q-12 127 -129 127zM225 560l116 150h104l-130 -150
h-90z" />
    <glyph glyph-name="ecircumflex" unicode="&#xea;" horiz-adv-x="540" 
d="M270 -8q-101 0 -163 64.5t-62 174.5v38q0 108 62.5 173.5t162.5 65.5q101 0 163 -65t62 -174v-48h-356q2 -71 37.5 -109t93.5 -38q56 0 84 19.5t44 61.5h92q-33 -163 -220 -163zM270 426q-55 0 -89 -32.5t-41 -94.5h259q-12 127 -129 127zM347 560l-77 87l-77 -87h-88
l116 150h98l116 -150h-88z" />
    <glyph glyph-name="edieresis" unicode="&#xeb;" horiz-adv-x="540" 
d="M270 -8q-101 0 -163 64.5t-62 174.5v38q0 108 62.5 173.5t162.5 65.5q101 0 163 -65t62 -174v-48h-356q2 -71 37.5 -109t93.5 -38q56 0 84 19.5t44 61.5h92q-33 -163 -220 -163zM270 426q-55 0 -89 -32.5t-41 -94.5h259q-12 127 -129 127zM175 575q-25 0 -42.5 17.5
t-17.5 42.5t17.5 42.5t42.5 17.5t42.5 -17.5t17.5 -42.5t-17.5 -42.5t-42.5 -17.5zM365 575q-25 0 -42.5 17.5t-17.5 42.5t17.5 42.5t42.5 17.5t42.5 -17.5t17.5 -42.5t-17.5 -42.5t-42.5 -17.5z" />
    <glyph glyph-name="igrave" unicode="&#xec;" horiz-adv-x="256" 
d="M83 0v500h90v-500h-90zM83 560l-130 150h104l116 -150h-90z" />
    <glyph glyph-name="iacute" unicode="&#xed;" horiz-adv-x="256" 
d="M83 0v500h90v-500h-90zM83 560l116 150h104l-130 -150h-90z" />
    <glyph glyph-name="icircumflex" unicode="&#xee;" horiz-adv-x="256" 
d="M83 0v500h90v-500h-90zM205 560l-77 87l-77 -87h-88l116 150h98l116 -150h-88z" />
    <glyph glyph-name="idieresis" unicode="&#xef;" horiz-adv-x="256" 
d="M83 0v500h90v-500h-90zM33 575q-25 0 -42.5 17.5t-17.5 42.5t17.5 42.5t42.5 17.5t42.5 -17.5t17.5 -42.5t-17.5 -42.5t-42.5 -17.5zM223 575q-25 0 -42.5 17.5t-17.5 42.5t17.5 42.5t42.5 17.5t42.5 -17.5t17.5 -42.5t-17.5 -42.5t-42.5 -17.5z" />
    <glyph glyph-name="eth" unicode="&#xf0;" horiz-adv-x="545" 
d="M155 518v61l67 36q-64 58 -97 85h113q33 -29 53 -48l104 56v-61l-64 -35q164 -172 164 -353v-38q0 -103 -62 -166t-163 -63q-102 0 -163.5 62.5t-61.5 166.5v38q0 102 60 165.5t150 63.5q55 0 98 -23q-33 51 -91 110zM270 78q61 0 96 37.5t35 105.5v45q-2 65 -37 100.5
t-94 35.5q-60 0 -95.5 -38t-35.5 -105v-38q0 -66 36 -104.5t95 -38.5z" />
    <glyph glyph-name="ntilde" unicode="&#xf1;" horiz-adv-x="575" 
d="M75 0v500h70l9 -69q55 77 161 77q88 0 139 -55.5t51 -157.5v-295h-90v295q0 127 -115 127q-60 0 -96.5 -33.5t-38.5 -88.5v-300h-90zM355 565q-30 0 -55 16.5t-43 33t-32 16.5q-32 0 -32 -51h-63q0 62 25.5 93.5t69.5 31.5q30 0 54.5 -16.5t43 -33t32.5 -16.5q32 0 32 51
h63q0 -62 -25.5 -93.5t-69.5 -31.5z" />
    <glyph glyph-name="ograve" unicode="&#xf2;" horiz-adv-x="550" 
d="M275 -8q-106 0 -168 64t-62 175v38q0 110 62.5 174.5t167.5 64.5q106 0 168 -64t62 -175v-38q0 -110 -62.5 -174.5t-167.5 -64.5zM275 78q64 0 100 39t36 114v38q0 74 -36.5 113.5t-99.5 39.5q-64 0 -100 -39t-36 -114v-38q0 -74 36.5 -113.5t99.5 -39.5zM230 560
l-130 150h104l116 -150h-90z" />
    <glyph glyph-name="oacute" unicode="&#xf3;" horiz-adv-x="550" 
d="M275 -8q-106 0 -168 64t-62 175v38q0 110 62.5 174.5t167.5 64.5q106 0 168 -64t62 -175v-38q0 -110 -62.5 -174.5t-167.5 -64.5zM275 78q64 0 100 39t36 114v38q0 74 -36.5 113.5t-99.5 39.5q-64 0 -100 -39t-36 -114v-38q0 -74 36.5 -113.5t99.5 -39.5zM230 560
l116 150h104l-130 -150h-90z" />
    <glyph glyph-name="ocircumflex" unicode="&#xf4;" horiz-adv-x="550" 
d="M275 -8q-106 0 -168 64t-62 175v38q0 110 62.5 174.5t167.5 64.5q106 0 168 -64t62 -175v-38q0 -110 -62.5 -174.5t-167.5 -64.5zM275 78q64 0 100 39t36 114v38q0 74 -36.5 113.5t-99.5 39.5q-64 0 -100 -39t-36 -114v-38q0 -74 36.5 -113.5t99.5 -39.5zM352 560l-77 87
l-77 -87h-88l116 150h98l116 -150h-88z" />
    <glyph glyph-name="otilde" unicode="&#xf5;" horiz-adv-x="550" 
d="M275 -8q-106 0 -168 64t-62 175v38q0 110 62.5 174.5t167.5 64.5q106 0 168 -64t62 -175v-38q0 -110 -62.5 -174.5t-167.5 -64.5zM275 78q64 0 100 39t36 114v38q0 74 -36.5 113.5t-99.5 39.5q-64 0 -100 -39t-36 -114v-38q0 -74 36.5 -113.5t99.5 -39.5zM340 565
q-30 0 -55 16.5t-43 33t-32 16.5q-32 0 -32 -51h-63q0 62 25.5 93.5t69.5 31.5q30 0 54.5 -16.5t43 -33t32.5 -16.5q32 0 32 51h63q0 -62 -25.5 -93.5t-69.5 -31.5z" />
    <glyph glyph-name="odieresis" unicode="&#xf6;" horiz-adv-x="550" 
d="M275 -8q-106 0 -168 64t-62 175v38q0 110 62.5 174.5t167.5 64.5q106 0 168 -64t62 -175v-38q0 -110 -62.5 -174.5t-167.5 -64.5zM275 78q64 0 100 39t36 114v38q0 74 -36.5 113.5t-99.5 39.5q-64 0 -100 -39t-36 -114v-38q0 -74 36.5 -113.5t99.5 -39.5zM180 575
q-26 0 -43 17.5t-17 42.5t17 42.5t43 17.5t43 -17.5t17 -42.5t-17 -42.5t-43 -17.5zM370 575q-26 0 -43 17.5t-17 42.5t17 42.5t43 17.5t43 -17.5t17 -42.5t-17 -42.5t-43 -17.5z" />
    <glyph glyph-name="divide" unicode="&#xf7;" 
d="M70 317v86h450v-86h-450zM295 490q-30 0 -50 20t-20 50t20 50t50 20t50 -20t20 -50t-20 -50t-50 -20zM295 90q-30 0 -50 20t-20 50t20 50t50 20t50 -20t20 -50t-20 -50t-50 -20z" />
    <glyph glyph-name="oslash" unicode="&#xf8;" horiz-adv-x="550" 
d="M92 -8l-47 41l41 48q-41 59 -41 150v38q0 111 62 175t168 64q85 0 145 -44l38 44l47 -42l-42 -48q42 -61 42 -149v-38q0 -111 -62 -175t-168 -64q-87 0 -145 43zM139 231q0 -45 13 -75l208 239q-33 27 -85 27q-63 0 -99.5 -39.5t-36.5 -113.5v-38zM275 78q63 0 99.5 39.5
t36.5 113.5v38q0 44 -13 74l-208 -239q34 -26 85 -26z" />
    <glyph glyph-name="ugrave" unicode="&#xf9;" horiz-adv-x="565" 
d="M255 -8q-84 0 -134.5 56t-50.5 157v295h90v-295q0 -63 29 -95t81 -32q57 0 92.5 33.5t37.5 87.5v301h90v-500h-70l-9 69q-55 -77 -156 -77zM235 560l-130 150h104l116 -150h-90z" />
    <glyph glyph-name="uacute" unicode="&#xfa;" horiz-adv-x="565" 
d="M255 -8q-84 0 -134.5 56t-50.5 157v295h90v-295q0 -63 29 -95t81 -32q57 0 92.5 33.5t37.5 87.5v301h90v-500h-70l-9 69q-55 -77 -156 -77zM235 560l116 150h104l-130 -150h-90z" />
    <glyph glyph-name="ucircumflex" unicode="&#xfb;" horiz-adv-x="565" 
d="M255 -8q-84 0 -134.5 56t-50.5 157v295h90v-295q0 -63 29 -95t81 -32q57 0 92.5 33.5t37.5 87.5v301h90v-500h-70l-9 69q-55 -77 -156 -77zM357 560l-77 87l-77 -87h-88l116 150h98l116 -150h-88z" />
    <glyph glyph-name="udieresis" unicode="&#xfc;" horiz-adv-x="565" 
d="M255 -8q-84 0 -134.5 56t-50.5 157v295h90v-295q0 -63 29 -95t81 -32q57 0 92.5 33.5t37.5 87.5v301h90v-500h-70l-9 69q-55 -77 -156 -77zM185 575q-25 0 -42.5 17.5t-17.5 42.5t17.5 42.5t42.5 17.5t42.5 -17.5t17.5 -42.5t-17.5 -42.5t-42.5 -17.5zM375 575
q-25 0 -42.5 17.5t-17.5 42.5t17.5 42.5t42.5 17.5t42.5 -17.5t17.5 -42.5t-17.5 -42.5t-42.5 -17.5z" />
    <glyph glyph-name="yacute" unicode="&#xfd;" horiz-adv-x="520" 
d="M140 -200l77 200l-202 500h98l152 -387l144 387h96l-269 -700h-96zM216 560l116 150h104l-130 -150h-90z" />
    <glyph glyph-name="thorn" unicode="&#xfe;" horiz-adv-x="560" 
d="M317 -8q-99 0 -152 65v-257h-90v900h90v-258q53 66 153 66q88 0 142.5 -62.5t54.5 -176.5v-38q0 -113 -55 -176t-143 -63zM293 78q60 0 94 39t34 114v38q0 76 -33.5 114.5t-94.5 38.5q-56 0 -91.5 -38.5t-36.5 -107.5v-45q0 -72 35.5 -112.5t92.5 -40.5z" />
    <glyph glyph-name="ydieresis" unicode="&#xff;" horiz-adv-x="520" 
d="M140 -200l77 200l-202 500h98l152 -387l144 387h96l-269 -700h-96zM166 575q-26 0 -43 17.5t-17 42.5t17 42.5t43 17.5t43 -17.5t17 -42.5t-17 -42.5t-43 -17.5zM356 575q-26 0 -43 17.5t-17 42.5t17 42.5t43 17.5t43 -17.5t17 -42.5t-17 -42.5t-43 -17.5z" />
    <glyph glyph-name="OE" unicode="&#x152;" horiz-adv-x="960" 
d="M483 0v18q-55 -26 -125 -26q-138 0 -220.5 88t-82.5 241v58q0 152 83.5 240.5t219.5 88.5q70 0 125 -26v18h432v-86h-338v-211h278v-86h-278v-231h338v-86h-432zM358 82q67 0 125 36v463q-59 37 -125 37q-93 0 -149 -62.5t-56 -176.5v-58q0 -113 56.5 -176t148.5 -63z
" />
    <glyph glyph-name="oe" unicode="&#x153;" horiz-adv-x="910" 
d="M638 -8q-121 0 -180 95q-59 -95 -183 -95q-106 0 -168 64t-62 175v38q0 111 62 175t168 64q124 0 183 -97q61 97 180 97q102 0 164.5 -65t62.5 -174v-48h-360q2 -71 38 -109t95 -38q56 0 85 19t45 57h92q-34 -158 -222 -158zM275 78q63 0 99.5 39.5t36.5 113.5v38
q0 74 -36.5 113.5t-99.5 39.5t-99.5 -39.5t-36.5 -113.5v-38q0 -74 36.5 -113.5t99.5 -39.5zM638 426q-55 0 -90 -32t-42 -95h263q-12 127 -131 127z" />
    <glyph glyph-name="Ydieresis" unicode="&#x178;" horiz-adv-x="650" 
d="M283 0v245l-263 455h108l202 -355l196 355h104l-253 -455v-245h-94zM222 775q-26 0 -43 17.5t-17 42.5t17 42.5t43 17.5t43 -17.5t17 -42.5t-17 -42.5t-43 -17.5zM432 775q-26 0 -43 17.5t-17 42.5t17 42.5t43 17.5t43 -17.5t17 -42.5t-17 -42.5t-43 -17.5z" />
    <glyph glyph-name="circumflex" unicode="&#x2c6;" horiz-adv-x="360" 
d="M257 560l-77 87l-77 -87h-88l116 150h98l116 -150h-88z" />
    <glyph glyph-name="tilde" unicode="&#x2dc;" horiz-adv-x="340" 
d="M235 565q-30 0 -55 16.5t-43 33t-32 16.5q-32 0 -32 -51h-63q0 62 25.5 93.5t69.5 31.5q30 0 54.5 -16.5t43 -33t32.5 -16.5q32 0 32 51h63q0 -62 -25.5 -93.5t-69.5 -31.5z" />
    <glyph glyph-name="uni2000" unicode="&#x2000;" horiz-adv-x="470" 
 />
    <glyph glyph-name="uni2001" unicode="&#x2001;" horiz-adv-x="940" 
 />
    <glyph glyph-name="uni2002" unicode="&#x2002;" horiz-adv-x="470" 
 />
    <glyph glyph-name="uni2003" unicode="&#x2003;" horiz-adv-x="940" 
 />
    <glyph glyph-name="uni2004" unicode="&#x2004;" horiz-adv-x="313" 
 />
    <glyph glyph-name="uni2005" unicode="&#x2005;" horiz-adv-x="235" 
 />
    <glyph glyph-name="uni2006" unicode="&#x2006;" horiz-adv-x="156" 
 />
    <glyph glyph-name="uni2007" unicode="&#x2007;" horiz-adv-x="156" 
 />
    <glyph glyph-name="uni2008" unicode="&#x2008;" horiz-adv-x="117" 
 />
    <glyph glyph-name="uni2009" unicode="&#x2009;" horiz-adv-x="188" 
 />
    <glyph glyph-name="uni200A" unicode="&#x200a;" horiz-adv-x="52" 
 />
    <glyph glyph-name="uni2010" unicode="&#x2010;" horiz-adv-x="400" 
d="M45 217v86h310v-86h-310z" />
    <glyph glyph-name="uni2011" unicode="&#x2011;" horiz-adv-x="400" 
d="M45 217v86h310v-86h-310z" />
    <glyph glyph-name="figuredash" unicode="&#x2012;" horiz-adv-x="400" 
d="M45 217v86h310v-86h-310z" />
    <glyph glyph-name="endash" unicode="&#x2013;" 
d="M45 217v86h500v-86h-500z" />
    <glyph glyph-name="emdash" unicode="&#x2014;" horiz-adv-x="700" 
d="M45 217v86h610v-86h-610z" />
    <glyph glyph-name="quoteleft" unicode="&#x2018;" horiz-adv-x="250" 
d="M200 700l-48 -255h-102l79 255h71z" />
    <glyph glyph-name="quoteright" unicode="&#x2019;" horiz-adv-x="250" 
d="M50 445l48 255h102l-79 -255h-71z" />
    <glyph glyph-name="quotesinglbase" unicode="&#x201a;" horiz-adv-x="250" 
d="M35 -150l48 255h102l-79 -255h-71z" />
    <glyph glyph-name="quotedblleft" unicode="&#x201c;" horiz-adv-x="420" 
d="M370 700l-48 -255h-102l79 255h71zM200 700l-48 -255h-102l79 255h71z" />
    <glyph glyph-name="quotedblright" unicode="&#x201d;" horiz-adv-x="420" 
d="M220 445l48 255h102l-79 -255h-71zM50 445l48 255h102l-79 -255h-71z" />
    <glyph glyph-name="quotedblbase" unicode="&#x201e;" horiz-adv-x="420" 
d="M205 -150l48 255h102l-79 -255h-71zM35 -150l48 255h102l-79 -255h-71z" />
    <glyph glyph-name="bullet" unicode="&#x2022;" horiz-adv-x="450" 
d="M225 131q-53 0 -91 38t-38 91t38 91t91 38t91 -38t38 -91t-38 -91t-91 -38z" />
    <glyph glyph-name="ellipsis" unicode="&#x2026;" horiz-adv-x="860" 
d="M125 -8q-30 0 -50 20t-20 50t20 50t50 20t50 -20t20 -50t-20 -50t-50 -20zM430 -8q-30 0 -50 20t-20 50t20 50t50 20t50 -20t20 -50t-20 -50t-50 -20zM735 -8q-30 0 -50 20t-20 50t20 50t50 20t50 -20t20 -50t-20 -50t-50 -20z" />
    <glyph glyph-name="uni202F" unicode="&#x202f;" horiz-adv-x="188" 
 />
    <glyph glyph-name="guilsinglleft" unicode="&#x2039;" horiz-adv-x="300" 
d="M30 258l122 202h98l-120 -198l120 -202h-101z" />
    <glyph glyph-name="guilsinglright" unicode="&#x203a;" horiz-adv-x="300" 
d="M270 262l-122 -202h-98l120 198l-120 202h101z" />
    <glyph glyph-name="uni205F" unicode="&#x205f;" horiz-adv-x="235" 
 />
    <glyph glyph-name="Euro" unicode="&#x20ac;" horiz-adv-x="620" 
d="M10 388l22 74h94q19 118 91.5 178t188.5 60h184l-26 -89h-158q-154 0 -181 -149h296l-21 -74h-282v-11v-56v-9h260l-21 -74h-233q15 -79 59.5 -114.5t121.5 -35.5h175v-88h-175q-244 0 -279 238h-116l22 74h88v9v56v11h-110z" />
    <glyph glyph-name="trademark" unicode="&#x2122;" horiz-adv-x="850" 
d="M584 417l-68 146l-16 39v-302h-77v400h100l99 -209l103 209h95v-400h-77v299l-15 -36l-68 -146h-76zM30 631v69h332v-69h-127v-331h-77v331h-128z" />
    <glyph glyph-name="uni25FC" unicode="&#x25fc;" horiz-adv-x="500" 
d="M0 500h500v-500h-500v500z" />
    <glyph glyph-name="uniFB01" unicode="&#xfb01;" horiz-adv-x="585" 
d="M420 0v418h-220v-418h-90v418h-90v82h90v53q0 71 38 109t109 38h158v-82h-146q-69 0 -69 -74v-44h310v-500h-90z" />
    <glyph glyph-name="uniFB02" unicode="&#xfb02;" horiz-adv-x="625" 
d="M561 0q-71 0 -108.5 38t-37.5 109v471h-146q-69 0 -69 -74v-44h107v-82h-107v-418h-90v418h-90v82h90v53q0 71 38 109t109 38h248v-543q0 -75 69 -75h31v-82h-44z" />
    <glyph glyph-name="uniFB03" unicode="&#xfb03;" horiz-adv-x="900" 
d="M425 0v418h-225v-418h-90v418h-90v82h90v53q0 71 38 109t109 38h63v-82h-51q-69 0 -69 -74v-44h225v53q0 71 38 109t109 38h158v-82h-146q-69 0 -69 -74v-44h310v-500h-90v418h-220v-418h-90z" />
    <glyph glyph-name="uniFB04" unicode="&#xfb04;" horiz-adv-x="940" 
d="M425 0v418h-225v-418h-90v418h-90v82h90v53q0 71 38 109t109 38h63v-82h-51q-69 0 -69 -74v-44h225v53q0 71 38 109t109 38h248v-543q0 -75 69 -75h31v-82h-44q-71 0 -108.5 38t-37.5 109v471h-146q-69 0 -69 -74v-44h107v-82h-107v-418h-90z" />
    </font>
</defs>
</svg>
